↑↓torrent.by
Поиск
Логин:  Регистрация
Пароль:

Эффект Лазаря / The Lazarus Effect (2015) HDRip-AVC | D | iTunes

download Скачать торрент-файл   magnet Магнитная ссылка Размер: 742.96 MB Добавлен: 2024-07-03 05:00
Пиры будут получены из сети DHT
Последний сидер был замечен 2024-07-03 08:24
Информация о фильме Название: Эффект Лазаря Оригинальное название: The Lazarus Effect Год выхода: 2015 Жанр: Триллер, ужасы Режиссер: Дэвид Гелб В ролях: Марк Дюпласс, Оливия Уайлд, Сара Болгер, Эван Питерс, Дональд Гловер, Рэй Уайз, Скотт Шелдон, Эмили Келавос, Джеймс Эрл, Эми Акино О фильме: Команда любознательных студентов узнает секрет воскрешения людей из мертвых. Однако их открытие приводит к страшным последствиям. Страна: США Продолжительность: 1:23:12 Перевод: Дублированый (iTunes) Субтитры: Russian, English Файл Формат: Matroska Качество: HDRip-AVC Видео: 810x338 at 23.976 fps, x264@L4.1, ~1154 kbps, 0.176 bpp Аудио: AAC, 2 ch, ~96 kbps - | Русский | - Формат субтитров: softsub (SRT) ***Релиз от: -=DoMiNo=-
[+] M/Ix264 : frame I:1170 Avg QP:11.71 size: 42741 x264 : frame P:25844 Avg QP:14.76 size: 13395 x264 : frame B:92673 Avg QP:16.63 size: 3469 General Format : Matroska Format version : Version 4 File size : 743 MiB Duration : 1 h 23 min Overall bit rate : 1 248 kb/s Movie name : Эффект Лазаря.(2015).HDRip-AVC. Encoded date : UTC 2020-06-11 19:04:01 Writing application : mkvmerge v47.0.0 ('Black Flag') 64-bit Writing library : libebml v1.3.10 + libmatroska v1.5.2 Cover : Yes Attachments : cover.jpg / cover 2.jpg Video ID : 1 Format : AVC Format/Info : Advanced Video Codec Format profile : High@L4.1 Format settings : CABAC / 11 Ref Frames Format settings, CABAC : Yes Format settings, Reference : 11 frames Codec ID : V_MPEG4/ISO/AVC Duration : 1 h 23 min Bit rate : 1 154 kb/s Width : 810 pixels Height : 338 pixels Display aspect ratio : 2.40:1 Frame rate mode : Constant Frame rate : 23.976 (24000/1001) FPS Color space : YUV Chroma subsampling : 4:2:0 Bit depth : 8 bits Scan type : Progressive Bits/(Pixel*Frame) : 0.176 Stream size : 684 MiB (92%) Title : -=DoMiNo=- Writing library : x264 core 160 r3007 235ce61 Encoding settings : cabac=1 / ref=11 / deblock=1:-3:-3 / analyse=0x3:0x133 / me=umh / subme=10 / psy=1 / psy_rd=1.05:0.15 / mixed_ref=1 / me_range=32 / chroma_me=1 / trellis=2 / 8x8dct=1 / cqm=0 / deadzone=21,11 / fast_pskip=0 / chroma_qp_offset=-3 / threads=6 / lookahead_threads=1 / sliced_threads=0 / nr=0 / decimate=0 / interlaced=0 / bluray_compat=0 / constrained_intra=0 / bframes=10 / b_pyramid=2 / b_adapt=2 / b_bias=0 / direct=3 / weightb=1 / open_gop=0 / weightp=2 / keyint=250 / keyint_min=23 / scenecut=40 / intra_refresh=0 / rc_lookahead=60 / rc=2pass / mbtree=0 / bitrate=1154 / ratetol=1.0 / qcomp=0.60 / qpmin=0 / qpmax=69 / qpstep=4 / cplxblur=20.0 / qblur=0.5 / vbv_maxrate=50000 / vbv_bufsize=62500 / nal_hrd=none / filler=0 / ip_ratio=1.40 / pb_ratio=1.30 / aq=3:1.00 Language : English Default : Yes Forced : No Color range : Limited Color primaries : BT.709 Transfer characteristics : BT.709 Matrix coefficients : BT.709 Audio ID : 2 Format : AAC LC SBR Format/Info : Advanced Audio Codec Low Complexity with Spectral Band Replication Commercial name : HE-AAC Format settings : Implicit Codec ID : A_AAC-2 Duration : 1 h 23 min Bit rate : 96.0 kb/s Channel(s) : 2 channels Channel layout : L R Sampling rate : 48.0 kHz Frame rate : 23.438 FPS (2048 SPF) Compression mode : Lossy Stream size : 57.1 MiB (8%) Language : Russian Default : Yes Forced : No Text #1 ID : 3 Format : UTF-8 Codec ID : S_TEXT/UTF8 Codec ID/Info : UTF-8 Plain Text Duration : 1 h 16 min Bit rate : 86 b/s Count of elements : 860 Stream size : 48.2 KiB (0%) Language : Russian Default : No Forced : No Text #2 ID : 4 Format : UTF-8 Codec ID : S_TEXT/UTF8 Codec ID/Info : UTF-8 Plain Text Duration : 1 h 21 min Bit rate : 51 b/s Count of elements : 827 Stream size : 30.7 KiB (0%) Language : English Default : No Forced : No Text #3 ID : 5 Format : UTF-8 Codec ID : S_TEXT/UTF8 Codec ID/Info : UTF-8 Plain Text Duration : 1 h 22 min Bit rate : 60 b/s Count of elements : 1031 Stream size : 36.7 KiB (0%) Language : English Default : No Forced : No Menu 00:00:00.000 : en:00:00:00.000 00:03:07.771 : en:00:03:07.771 00:05:33.959 : en:00:05:33.959 00:09:33.948 : en:00:09:33.948 00:12:23.868 : en:00:12:23.868 00:15:19.043 : en:00:15:19.043 00:18:05.001 : en:00:18:05.001 00:20:52.751 : en:00:20:52.751 00:24:48.779 : en:00:24:48.779 00:29:18.632 : en:00:29:18.632 00:31:29.638 : en:00:31:29.638 00:35:53.985 : en:00:35:53.985 00:38:02.697 : en:00:38:02.697 00:41:47.171 : en:00:41:47.171 00:44:04.809 : en:00:44:04.809 00:46:36.002 : en:00:46:36.002 00:49:43.272 : en:00:49:43.272 00:53:35.462 : en:00:53:35.462 00:56:15.330 : en:00:56:15.330 00:58:58.535 : en:00:58:58.535 01:03:56.207 : en:01:03:56.207 01:08:36.446 : en:01:08:36.446 01:11:25.990 : en:01:11:25.990 01:16:08.105 : en:01:16:08.105
[+] Скриншоты

Всего файлов в раздаче: 1 
Эффект Лазаря.(2015).HDRip-AVC.[-=DoMiNo=-].mkv742.96 MB

Похожие раздачи по запросу - Эффект
2024-07-15 magnet Серия - «Эффект мотылька. Детективы Анны Даниловой» [31 книга] (2016-2024) FB2 55.60 MB ↑ 0 ↓ 0
2024-06-05 magnet Эффект парадокса / Paradox Effect (2023) BDRip-AVC от New-Team | P | HDRezka Studio 1.75 GB ↑ 0 ↓ 0
2024-06-05 magnet Эффект парадокса / Paradox Effect (2023) BDRip от MegaPeer | P | HDRezka Studio 1.46 GB ↑ 0 ↓ 0
2024-04-11 magnet Эффект колибри / Hummingbird (2013) BDRip-HEVC 1080p от RIPS CLUB | D, A 5.64 GB ↑ 0 ↓ 1
2023-10-25 magnet Эффект свободы - Зона комфорта (2023) MP3 101.14 MB ↑ 0 ↓ 0

Комментарии


Зарегистрируйтесь чтобы добавить комментарий
Торрент клиент
byTorrent - программа для загрузки торрент-файлов.

Скачать byTorrent.exe (1,5 МБ)

Скачать byTorrent.zip (0,6 МБ)

Поддержи torrent.by
российских рублей
(300 российских рублей это 4$)

Обратная связь rss

End game ©