↑↓torrent.by
Поиск
Логин:  Регистрация
Пароль:

Друг в океане / Blueback (2022) BDRip 1080p от MegaPeer | D

download Скачать торрент-файл   magnet Магнитная ссылка Размер: 9.19 GB Добавлен: 2024-07-03 05:00
Пиры будут получены из сети DHT
Последний сидер был замечен 2024-07-13 21:28
«Мы в ответе за тех, кого приручили» Информация Название: Друг в океане Оригинальное название: Blueback Год выхода: 2022 Жанр: Семейный, драма Режиссер: Роберт Коннолли В ролях: Миа Васиковска, Рада Митчелл, Альберт Мванги, Ариэль Джой Донохью, Кларенс Джон Райан, Эрик Бана, Эрик Томсон, Элизабет Александр, Ильза Фогг, Эдди Бару Описание: Эбби увлекается дайвингом. Во время очередного погружения девушка видит большого синего групера — рыбы, находящейся на грани исчезновения. С каждым днем новообретенные друзья все больше проводят времени вместе, но груперу угрожает опасность — в этих краях действует опасная банда браконьеров, которых интересуют только деньги. Страна: Австралия Студия: Arenamedia Продолжительность: 01:42:36 Перевод: Профессиональный (полное дублирование) | Мосфильм-Мастер | Файл Качество: BDRip 1080p Исходник: Blueback 2022 1080p BluRay REMUX AVC DTS-HD MA 5.1 NOGRP Формат: MKV Кодек: MPEG-4 AVC Видео: 1920x804 (2.40:1), 24 fps, MPEG-4 AVC ~ 11.3 Mbps avg, 0.305 bit/pixel Аудио: AC3, 48 kHz, 6 ch, ~448.00 kbps avg | русский | DUB Аудио: E-AC3, 48 kHz, 6 ch, ~448.00 kbps avg | русский | DUB Аудио: AC3, 48 kHz, 6 ch, ~640.00 kbps avg | английский | Субтитры: Русские (Forced), Английские (Full, SDH)
[+] Инфо-файлОбщее Уникальный идентификатор : 193074783060216363041918436902729767602 (0x9140D9C23E64B3CF899B7E0BABB55AB2) Полное имя : Blueback.2022.1080p.BluRay.DD.5.1.x264-MegaPeer.mkv Формат : Matroska Версия формата : Version 4 Размер файла : 9,19 Гбайт Продолжительность : 1 ч. 42 мин. Общий битрейт : 12,8 Мбит/сек Частота кадров : 24,000 кадра/сек Название фильма : Друг в океане / Blueback (2022) от MegaPeer Дата кодирования : 2024-07-02 10:27:27 UTC Программа кодирования : mkvmerge v15.0.0 ('Duel with the Devil') 64-bit Библиотека кодирования : libebml v1.3.5 + libmatroska v1.4.5 Обложка : Yes Attachments : cover.jpg Видео Идентификатор : 1 Формат : AVC Формат/Информация : Advanced Video Codec Профиль формата : High@L4.1 Настройки формата : CABAC / 5 Ref Frames Параметр CABAC формата : Да Параметр RefFrames формата : 5 кадров Идентификатор кодека : V_MPEG4/ISO/AVC Продолжительность : 1 ч. 42 мин. Битрейт : 11,3 Мбит/сек Ширина : 1 920 пикселей Высота : 804 пикселя Соотношение сторон дисплея : 2,39:1 Режим частоты кадров : Постоянный Частота кадров : 24,000 кадра/сек Цветовое пространство : YUV Цветовая субдискретизация : 4:2:0 Битовая глубина : 8 бит Тип развёртки : Прогрессивная Бит/(Пиксели*Кадры) : 0.305 Размер потока : 8,08 Гбайт (88%) Библиотека кодирования : x264 core 164 r3186+62M stillet t_mod_New Параметры библиотеки кодирования : cabac=1 / ref=5 / deblock=1:-3:-3 / analyse=0x3:0x113 / me=umh / subme=10 / psy=1 / fade_compensate=0.00 / psy_rd=1.03:0.01 / mixed_ref=1 / me_range=32 / chroma_me=1 / trellis=2 / 8x8dct=1 / cqm=0 / deadzone=21,11 / fast_pskip=0 / chroma_qp_offset=-3 / threads=12 / lookahead_threads=3 / sliced_threads=0 / nr=0 / decimate=0 / interlaced=0 / bluray_compat=0 / constrained_intra=0 / fgo=0 / bframes=12 / b_pyramid=2 / b_adapt=2 / b_bias=0 / direct=3 / weightb=1 / open_gop=0 / weightp=2 / keyint=240 / keyint_min=24 / scenecut=40 / intra_refresh=0 / rc_lookahead=40 / rc=2pass / mbtree=0 / bitrate=11297 / ratetol=1.0 / qcomp=0.60 / qpmin=0:0:0 / qpmax=69:69:69 / qpstep=4 / cplxblur=20.0 / qblur=0.5 / vbv_maxrate=50000 / vbv_bufsize=62500 / nal_hrd=none / filler=0 / ip_ratio=1.40 / pb_ratio=1.30 / aq=1:1.10 / aq-sensitivity=10.00 / aq-factor=1.00:1.00:1.00 / aq2=0 / aq3=0 Язык : Английский По умолчанию : Да Принудительно : Нет Аудио #1 Идентификатор : 2 Формат : AC-3 Формат/Информация : Audio Coding 3 Коммерческое название : Dolby Digital Идентификатор кодека : A_AC3 Продолжительность : 1 ч. 42 мин. Вид битрейта : Постоянный Битрейт : 448 Кбит/сек Канал(-ы) : 6 каналов Расположение каналов : L R C LFE Ls Rs Частота дискретизации : 48,0 КГц Частота кадров : 31,250 кадров/сек (1536 SPF) Метод сжатия : С потерями Размер потока : 329 Мбайт (3%) Заголовок : DUB | Мосфильм-Мастер Язык : Русский Вид сервиса : Complete Main По умолчанию : Да Принудительно : Да AC3_metadata cmixlev : -3.0 dB surmixlev : -3 dB Аудио #2 Идентификатор : 3 Формат : E-AC-3 Формат/Информация : Enhanced AC-3 Коммерческое название : Dolby Digital Plus Идентификатор кодека : A_EAC3 Продолжительность : 1 ч. 42 мин. Вид битрейта : Постоянный Битрейт : 448 Кбит/сек Канал(-ы) : 6 каналов Расположение каналов : L R C LFE Ls Rs Частота дискретизации : 48,0 КГц Частота кадров : 31,250 кадров/сек (1536 SPF) Метод сжатия : С потерями Размер потока : 329 Мбайт (3%) Заголовок : DUB | Мосфильм-Мастер Язык : Русский Вид сервиса : Complete Main По умолчанию : Нет Принудительно : Нет Аудио #3 Идентификатор : 4 Формат : AC-3 Формат/Информация : Audio Coding 3 Коммерческое название : Dolby Digital Идентификатор кодека : A_AC3 Продолжительность : 1 ч. 42 мин. Вид битрейта : Постоянный Битрейт : 640 Кбит/сек Канал(-ы) : 6 каналов Расположение каналов : L R C LFE Ls Rs Частота дискретизации : 48,0 КГц Частота кадров : 31,250 кадров/сек (1536 SPF) Метод сжатия : С потерями Размер потока : 470 Мбайт (5%) Язык : Английский Вид сервиса : Complete Main По умолчанию : Нет Принудительно : Нет AC3_metadata cmixlev : -3.0 dB surmixlev : -3 dB Текст #1 Идентификатор : 5 Формат : UTF-8 Идентификатор кодека : S_TEXT/UTF8 Идентификатор кодека/Информация : UTF-8 Plain Text Продолжительность : 1 ч. 37 мин. Битрейт : 4 бит/сек Частота кадров : 0,010 кадр/сек Число элементов : 60 Размер потока : 3,15 КиБ (0%) Заголовок : Forcec Язык : Русский По умолчанию : Да Принудительно : Да Текст #2 Идентификатор : 6 Формат : UTF-8 Идентификатор кодека : S_TEXT/UTF8 Идентификатор кодека/Информация : UTF-8 Plain Text Продолжительность : 1 ч. 31 мин. Битрейт : 37 бит/сек Частота кадров : 0,167 кадр/сек Число элементов : 918 Размер потока : 25,4 КиБ (0%) Заголовок : Full Язык : Английский По умолчанию : Нет Принудительно : Нет Текст #3 Идентификатор : 7 Формат : UTF-8 Идентификатор кодека : S_TEXT/UTF8 Идентификатор кодека/Информация : UTF-8 Plain Text Продолжительность : 1 ч. 37 мин. Битрейт : 47 бит/сек Частота кадров : 0,209 кадр/сек Число элементов : 1231 Размер потока : 34,0 КиБ (0%) Заголовок : SDH Язык : Английский По умолчанию : Нет Принудительно : Нет Меню 00:00:00.000 : en:Chapter 01 00:07:13.708 : en:Chapter 02 00:16:01.166 : en:Chapter 03 00:26:24.250 : en:Chapter 04 00:31:50.458 : en:Chapter 05 00:42:33.750 : en:Chapter 06 00:52:02.250 : en:Chapter 07 00:59:23.291 : en:Chapter 08 01:08:02.916 : en:Chapter 09 01:18:13.625 : en:Chapter 10 01:27:58.250 : en:Chapter 11 01:35:08.208 : en:Chapter 12
Релиз:

Всего файлов в раздаче: 1 
Blueback.2022.1080p.BluRay.DD.5.1.x264-MegaPeer.mkv9.19 GB

Похожие раздачи по запросу - Друг
2024-07-21 magnet Мой лучший друг / Mon meilleur ami (2006) BDRip-AVC | P 2.25 GB ↑ 0 ↓ 0
2024-07-18 magnet Опасный друг / Good Boy (2022) BDRip 1080p от DoMiNo & селезень | D | Paragraph Media 3.01 GB ↑ 0 ↓ 0
2024-07-07 magnet Американский друг / Der amerikanische Freund (1977) BDRip 720p от msltel | P 5.64 GB ↑ 0 ↓ 0
2024-07-05 magnet Американский друг / Der amerikanische Freund (1977) BDRip-AVC от msltel | P 2.65 GB ↑ 0 ↓ 0
2024-07-03 magnet Друг в океане / Blueback (2022) WEB-DLRip-AVC от DoMiNo & селезень | D | Локализованная версия 1.46 GB ↑ 0 ↓ 0
2024-07-02 magnet Друг в океане / Blueback (2022) BDRip от MegaPeer | D 1.46 GB ↑ 0 ↓ 0
2024-07-02 magnet Друг в океане / Blueback (2022) BDRip 720p от MegaPeer | D 3.98 GB ↑ 0 ↓ 0

Комментарии


Зарегистрируйтесь чтобы добавить комментарий
Торрент клиент
byTorrent - программа для загрузки торрент-файлов.

Скачать byTorrent.exe (1,5 МБ)

Скачать byTorrent.zip (0,6 МБ)

Поддержи torrent.by
российских рублей
(300 российских рублей это 4$)

Обратная связь rss

End game ©