↑↓torrent.by
Поиск
Логин:  Регистрация
Пароль:

Чистые [01-03 из 08] (2024) WEBRip от Files-x

download Скачать торрент-файл   magnet Магнитная ссылка Размер: 1.47 GB Добавлен: 2024-07-03 05:00
Пиры будут получены из сети DHT
Последний сидер был замечен 2024-07-09 17:10
Информация о фильме Название: Чистые Год выхода: 2024 Жанр: Триллер, драма Режиссер: Николай Хомерики В ролях: Фёдор Бондарчук, Виктория Исакова, Софья Синицына, Диана Милютина, Даниил Воробьёв, Никита Кологривый, Борис Каморзин, Евгений Харитонов, Риналь Мухаметов, Марк Эйдельштейн О сериале: Петербург, 1903 год. Мир роскоши и досуга для мужчин, мир страха и подчинения для женщин. Ксения и Стеша работают в подпольном доме терпимости под контролем благообразной и безжалостной дамы. Девушки продают мужчинам тело, чувства, флирт и иллюзию любви. Кажется, кроме красоты у них ничего нет. На самом же деле им доступна тайная сила — чистота души и желание свободы. И этой силой они смогут изменить все. Страна: Россия Студия: Кинокомпания "Всемирные Русские Студии" Продолжительность: 3 x ~ 00:43:00 Перевод: Не требуется Файл Кодек: XviD Качество: WEBRip Видео: XviD, ~ 1600 Кбит/с, 704x352, 25 кадр/с Аудио: AC3, 2 ch, 192 Кбит/с
[+] Скриншоты
[+] MediaInfo Общее Полное имя : D:filmsЧистые.2024.WEB-DLRip.Files-x�2. Чистые.2024.WEB-DLRip.Files-x.avi Формат : AVI Формат/Информация : Audio Video Interleave Настройки формата : BitmapInfoHeader / WaveFormatEx Размер файла : 547 Мбайт Продолжительность : 43 м. 0 с. Общий поток : 1 777 Кбит/сек Частота кадров : 25,000 кадров/сек Программа кодирования : VirtualDubMod 1.5.10.3 | www.virtualdub-fr.org || (build 2550/release) Библиотека кодирования : VirtualDubMod build 2550/release Видео Идентификатор : 0 Формат : MPEG-4 Visual Профиль формата : Advanced Simple@L5 Настройки формата : BVOP1 / Custom Matrix Параметр BVOP формата : 1 Параметр QPel формата : Нет Параметр GMC формата : Без точки перехода Параметр матрицы формата : Выборочная Идентификатор кодека : XVID Идентификатор кодека/Подсказка : XviD Продолжительность : 43 м. 0 с. Битрейт : 1 575 Кбит/сек Ширина : 704 пикселя Высота : 352 пикселя Соотношение сторон : 2,000 Частота кадров : 25,000 кадров/сек Цветовое пространство : YUV Субдискретизация насыщенности : 4:2:0 Битовая глубина : 8 бит Тип развёртки : Прогрессивная Метод сжатия : С потерями Бит/(Пиксели*Кадры) : 0.254 Размер потока : 485 Мбайт (89%) Библиотека кодирования : XviD 73 Аудио Идентификатор : 1 Формат : AC-3 Формат/Информация : Audio Coding 3 Коммерческое название : Dolby Digital Идентификатор кодека : 2000 Продолжительность : 43 м. 0 с. Вид битрейта : Постоянный Битрейт : 192 Кбит/сек Каналы : 2 канала Channel layout : L R Частота : 48,0 КГц Частота кадров : 31,250 кадров/сек (1536 SPF) Метод сжатия : С потерями Размер потока : 59,1 Мбайт (11%) Выравнивание : Разделение по промежуткам Продолжительность промежутка : 40 мс. (1,00 видеокадр) Время предзагрузки промежутка : 500 мс. Service kind : Complete Main
Релиз от:

Всего файлов в раздаче: 3 
01. Чистые.2024.WEB-DLRip.Files-x.avi452.94 MB
02. Чистые.2024.WEB-DLRip.Files-x.avi546.57 MB
03. Чистые.2024.WEB-DLRip.Files-x.avi509.50 MB

Похожие раздачи по запросу - Чистые
Вчера magnet Чистые [01х01-06 из 08] (2024) WEBRip-AVC от Generalfilm | КПК 1.14 GB ↑ 0 ↓ 0
2024-07-20 magnet Чистые [01-06 из 08] (2024) WEBRip от Files-x 3.57 GB ↑ 0 ↓ 0
2024-07-19 magnet Чистые [01x01-06 из 08] (2024) WEBRip 720p от ExKinoRay 5.18 GB ↑ 0 ↓ 0
2024-07-18 magnet Чистые / Серии: 1-6 из 8 [2024, триллер, драма, WEBRip-AVC] от Aleksan55 3.56 GB ↑ 0 ↓ 0
2024-07-18 magnet Чистые [01x01-06 из 08] (2024) WEBRip 1080p от ExKinoRay 7.76 GB ↑ 0 ↓ 0
2024-07-14 magnet Чистые [01x01-05 из 08] (2024) WEBRip 720p от ExKinoRay 4.24 GB ↑ 0 ↓ 0
2024-07-14 magnet Чистые [01-05 из 08] (2024) WEBRip от Files-x 2.93 GB ↑ 0 ↓ 0

Комментарии


Зарегистрируйтесь чтобы добавить комментарий
Торрент клиент
byTorrent - программа для загрузки торрент-файлов.

Скачать byTorrent.exe (1,5 МБ)

Скачать byTorrent.zip (0,6 МБ)

Поддержи torrent.by
российских рублей
(300 российских рублей это 4$)

Обратная связь rss

End game ©