↑↓torrent.by
Поиск
Логин:  Регистрация
Пароль:

На автомате [01x01-06 из 08] (2024) WEBRip 1080p

download Скачать торрент-файл   magnet Магнитная ссылка Размер: 7.94 GB Добавлен: 2024-07-03 05:00
Пиры будут получены из сети DHT
Последний сидер был замечен 2024-07-05 17:01
Информация о фильме Оригинальное название: На автомате Год выпуска: 2024 Жанр: Комедия, криминал Выпущено: Россия, Flagman Film Company, Kinch, Марс Медиа Энтертейнмент, Студия Плюс Режиссер: Борис Акопов В ролях: Слава Копейкин, Денис Косиков, Маргарита Галич, Агния Дитковските, Николай Шрайбер, Александра Урсуляк, Артур Бесчастный, Владимир Майзингер, Максим Стоянов, Иван Добронравов О сериале: Каждый день братьев-подростков Ромы и Жени проходит одинаково, на автомате: будильник, учёба, сигаретка за гаражом, склад с оружием... стоп, что? Парни решают, что это шанс быстро срубить лёгкие деньги, ведь надо всего-то продать автоматы в даркнете. Но где оружие, там и опасные люди - тут-то и начинается самое интересное. Очень скоро в истории оказываются замешаны все жители городка: мать-одиночка Светлана, хозяин ломбарда Альберт, тату-мастер Лёля, полицейский Басов, его дочь-блогерка Милена, а также столичные бандиты. Файл Формат: MKV Качество: WEBRip 1080p Видео: MPEG-4 AVC, ~ 3300 Кбит/с, 1920x816 Аудио 1: E-AC3, 6 ch, 448 Кбит/с Аудио 2: E-AC3, 6 ch, 448 Кбит/с | 18+ (1,4 серия) Аудио 3: E-AC3, 6 ch, 448 Кбит/с | Аудиодескрипция (1-4 серии) Продолжительность: ~ 00:30:00 Язык: Русский, тифлокомментирование Субтитры: Русские (Full, SDH)
[+] MediaInfo: General Unique ID : 208383521443359843927369254695454705744 (0x9CC534D5BE435F95EC7497A425350850) Complete name : F:TorrentsNa.avtomate.S01.1080p.WEB-DL.x264Na.avtomate.S01E01.1080p.WEB-DL.x264.mkv Format : Matroska Format version : Version 4 File size : 881 MiB Duration : 29 min 16 s Overall bit rate : 4 210 kb/s Frame rate : 25.000 FPS Encoded date : 2024-06-04 22:17:32 UTC Writing application : mkvmerge v82.0 ('I'm The President') 64-bit Writing library : libebml v1.4.5 + libmatroska v1.7.1 Video ID : 1 Format : AVC Format/Info : Advanced Video Codec Format profile : Progressive High@L4 Format settings : CABAC / 5 Ref Frames Format settings, CABAC : Yes Format settings, Reference : 5 frames Codec ID : V_MPEG4/ISO/AVC Duration : 29 min 16 s Bit rate : 3 311 kb/s Width : 1 920 pixels Height : 816 pixels Display aspect ratio : 2.35:1 Frame rate mode : Constant Frame rate : 25.000 FPS Color space : YUV Chroma subsampling : 4:2:0 Bit depth : 8 bits Scan type : Progressive Bits/(Pixel*Frame) : 0.085 Stream size : 693 MiB (79%) Writing library : x264 core 157 Encoding settings : cabac=1 / ref=5 / deblock=1:0:0 / analyse=0x3:0x133 / me=umh / subme=10 / psy=1 / psy_rd=1.00:0.00 / mixed_ref=1 / me_range=24 / chroma_me=1 / trellis=2 / 8x8dct=1 / cqm=0 / deadzone=21,11 / fast_pskip=1 / chroma_qp_offset=-2 / threads=25 / lookahead_threads=4 / sliced_threads=0 / nr=0 / decimate=1 / interlaced=0 / bluray_compat=0 / stitchable=1 / constrained_intra=0 / bframes=8 / b_pyramid=2 / b_adapt=2 / b_bias=0 / direct=3 / weightb=1 / open_gop=0 / weightp=2 / keyint=250 / keyint_min=25 / scenecut=40 / intra_refresh=0 / rc_lookahead=100 / rc=crf / mbtree=1 / crf=19.0 / qcomp=0.60 / qpmin=0 / qpmax=69 / qpstep=4 / ip_ratio=1.40 / aq=1:1.00 Language : English Default : Yes Forced : No Color range : Limited Matrix coefficients : BT.709 Audio #1 ID : 2 Format : E-AC-3 Format/Info : Enhanced AC-3 Commercial name : Dolby Digital Plus Codec ID : A_EAC3 Duration : 29 min 16 s Bit rate mode : Constant Bit rate : 448 kb/s Channel(s) : 6 channels Channel layout : L R C LFE Ls Rs Sampling rate : 48.0 kHz Frame rate : 31.250 FPS (1536 SPF) Bit depth : 32 bits Compression mode : Lossy Stream size : 93.8 MiB (11%) Language : Russian Service kind : Complete Main Default : Yes Forced : No Audio #2 ID : 3 Format : E-AC-3 Format/Info : Enhanced AC-3 Commercial name : Dolby Digital Plus Codec ID : A_EAC3 Duration : 29 min 16 s Bit rate mode : Constant Bit rate : 448 kb/s Channel(s) : 6 channels Channel layout : L R C LFE Ls Rs Sampling rate : 48.0 kHz Frame rate : 31.250 FPS (1536 SPF) Bit depth : 32 bits Compression mode : Lossy Stream size : 93.8 MiB (11%) Title : 18+ Language : Russian Service kind : Complete Main Default : No Forced : No Text #1 ID : 4 Format : UTF-8 Codec ID : S_TEXT/UTF8 Codec ID/Info : UTF-8 Plain Text Duration : 28 min 20 s Bit rate : 86 b/s Frame rate : 0.249 FPS Count of elements : 424 Stream size : 18.0 KiB (0%) Language : Russian Default : No Forced : No Text #2 ID : 5 Format : UTF-8 Codec ID : S_TEXT/UTF8 Codec ID/Info : UTF-8 Plain Text Duration : 28 min 55 s Bit rate : 103 b/s Frame rate : 0.278 FPS Count of elements : 482 Stream size : 21.9 KiB (0%) Title : SDH Language : Russian Default : No Forced : No
[+] Скриншоты

Всего файлов в раздаче: 6 
[NOOBDL]Na.avtomate.S01E01.1080p.WEB-DL.x264.mkv975.21 MB
[NOOBDL]Na.avtomate.S01E02.1080p.WEB-DL.x264.mkv1.61 GB
[NOOBDL]Na.avtomate.S01E03.1080p.WEB-DL.x264.mkv1.55 GB
[NOOBDL]Na.avtomate.S01E04.1080p.WEB-DL.x264.mkv1.68 GB
[NOOBDL]Na.avtomate.S01E05.1080p.WEB-DL.x264.mkv1.38 GB
[NOOBDL]Na.avtomate.S01E06.1080p.WEB-DL.x264.mkv786.35 MB

Похожие раздачи по запросу - автомате
2024-07-14 magnet На автомате [01х01-07 из 08] (2024) WEB-DLRip-AVC от Generalfilm | КПК 995.87 MB ↑ 0 ↓ 0
2024-07-12 magnet На автомате [01х01-07 из 08] (2024) WEB-DLRip от Files-x 3.08 GB ↑ 0 ↓ 0
2024-07-10 magnet На автомате [01х01-07 из 08] (2024) WEB-DLRip-AVC от Files-x 3.44 GB ↑ 0 ↓ 0
2024-07-10 magnet На автомате [01x01-07 из 08] (2024) WEB-DL 720p от ExKinoRay 5.58 GB ↑ 1 ↓ 0
2024-07-10 magnet На автомате [01x01-07 из 08] (2024) WEBRip 1080p 9.42 GB ↑ 1 ↓ 1
2024-07-10 magnet На автомате [01x01-07 из 08] (2024) WEBRip 1080p от ExKinoRay 6.91 GB ↑ 0 ↓ 0
2024-07-04 magnet На автомате [01х01-06 из 08] (2024) WEB-DLRip от Files-x 2.65 GB ↑ 0 ↓ 0

Комментарии


Зарегистрируйтесь чтобы добавить комментарий
Торрент клиент
byTorrent - программа для загрузки торрент-файлов.

Скачать byTorrent.exe (1,5 МБ)

Скачать byTorrent.zip (0,6 МБ)

Поддержи torrent.by
российских рублей
(300 российских рублей это 4$)

Обратная связь rss

End game ©