↑↓torrent.by
Поиск
Логин:  Регистрация
Пароль:

Охотники из рая / The Hunted (2024) WEB-DLRip от DoMiNo & селезень | D

download Скачать торрент-файл   magnet Магнитная ссылка Размер: 1.37 GB Добавлен: 2024-07-03 05:00
Пиры будут получены из сети DHT
Последний сидер был замечен 2024-07-11 04:37
Информация о фильме Название: Охотники из рая Оригинальное название: The Hunted Год выхода: 2022 Жанр: Ужасы, триллер Режиссер: Луи Лагайетт В ролях: Лили Банда, Алек Ньюман, Костис Калливретакис, Вассилис Кукалани, Милен Джампаной, Раджендра Баджадж, Дафна Александр, Пигмалион Дадакаридис, Аргирис Гаганис, Марлен Каминский, Аврора Мэрион, Айман Аль Абуд Описание: Переплывая Средиземное море, группа беженцев попадает в шторм. Пострадавших подбирают богатые европейцы, на своей яхте они привозят их на шикарный остров, дают сухую и чистую одежду, а также предлагают ужин. Однако утром беженцы просыпаются отнюдь не в уютных кроватях, а в поле, где им предстоит сражаться за свои жизни. Богачи устраивают мигрантам подобие «Голодных игр», из которых живыми выйдут только самые сильные. Страна: Бельгия, Франция, Великобритания, Греция Студия: Black Swan Tales, Ekome Продолжительность: 01:34:15 Перевод: Профессиональный (полное дублирование) | Официальный Файл Формат: AVI Качество: WEB-DLRip Видео: 704x400 at 24.000 fps, XviD 69, ~1881 kbps Аудио: AC3, 2 ch, ~192 kbps - | Русский | Субтитры: Нет ***Рип от: -=DoMiNo=-
[+] M/IGeneral Complete name : U:The.Hunted.2024.DUB.WEB-DLRip.seleZen.avi Format : AVI Format/Info : Audio Video Interleave Format settings : BitmapInfoHeader / WaveFormatEx File size : 1.37 GiB Duration : 1 h 34 min Overall bit rate : 2 082 kb/s Frame rate : 24.000 FPS Movie name : The.Hunted.2024.DUB.WEB-DLRip.seleZen Writing application : VirtualDubModRus 1.5.10.2 (build 2542/release) Writing library : VirtualDubMod build 2542/release Copyright : -=DoMiNo=- Video ID : 0 Format : MPEG-4 Visual Format profile : Advanced Simple@L5 Format settings : BVOP1 / Custom Matrix Format settings, BVOP : 1 Format settings, QPel : No Format settings, GMC : No warppoints Format settings, Matrix : Custom Codec ID : XVID Codec ID/Hint : XviD Duration : 1 h 34 min Bit rate : 1 881 kb/s Width : 704 pixels Height : 400 pixels Display aspect ratio : 16:9 Frame rate : 24.000 FPS Color space : YUV Chroma subsampling : 4:2:0 Bit depth : 8 bits Scan type : Progressive Compression mode : Lossy Bits/(Pixel*Frame) : 0.278 Stream size : 1.24 GiB (90%) Writing library : XviD 69 Audio ID : 1 Format : AC-3 Format/Info : Audio Coding 3 Commercial name : Dolby Digital Codec ID : 2000 Duration : 1 h 34 min Bit rate mode : Constant Bit rate : 192 kb/s Channel(s) : 2 channels Channel layout : L R Sampling rate : 48.0 kHz Frame rate : 31.250 FPS (1536 SPF) Compression mode : Lossy Stream size : 129 MiB (9%) Alignment : Split across interleaves Interleave, duration : 42 ms (1.00 video frame) Interleave, preload duratio : 500 ms Service kind : Complete Main Dialog Normalization : -24 dB compr : -0.28 dB mixlevel : 285 dB roomtyp : 3 ltrtcmixlev : -3.0 dB ltrtsurmixlev : -3.0 dB lorocmixlev : -3.0 dB lorosurmixlev : -3.0 dB dialnorm_Average : -24 dB dialnorm_Minimum : -24 dB dialnorm_Maximum : -24 dB
Релиз: Присоединяйся к: Кликай на баннеры.

Всего файлов в раздаче: 1 
The.Hunted.2024.DUB.WEB-DLRip.seleZen.avi1.37 GB

Похожие раздачи по запросу - Охотники
2024-07-19 magnet Охотники за привидениями: Леденящий ужас / Мисливці на привидів: Крижана імперія / Ghostbusters: Frozen Empire (2024) BDRemux 1080p | D | UKR 25.33 GB ↑ 0 ↓ 1
2024-07-17 magnet Павел Барчук - Веер Миров 01, Охотники за Попаданцами (2024) МР3 367.77 MB ↑ 0 ↓ 0
2024-07-03 magnet Охотники из рая / The Hunted (2024) WEB-DLRip-AVC от New-Team | D 1.65 GB ↑ 0 ↓ 0
2024-07-03 magnet Охотники из рая / The Hunted (2024) WEB-DLRip от MegaPeer | D 1.46 GB ↑ 0 ↓ 0
2024-07-03 magnet Охотники из рая / The Hunted (2024) WEB-DL 1080p | D 3.85 GB ↑ 0 ↓ 2
2024-07-01 magnet Охотники на ведьм / Hansel & Gretel: Witch Hunters (2013) BDRip 1080p HEVC от qusi555 | Лицензия | Theatrical Cut 4.48 GB ↑ 0 ↓ 0
2024-07-01 magnet Охотники на ведьм / Hansel and Gretel: Witch Hunters (2013) BDRip 720p от Leonardo and Scarabey | Лицензия | Расширенная версия 2.66 GB ↑ 0 ↓ 0

Комментарии


Зарегистрируйтесь чтобы добавить комментарий
Торрент клиент
byTorrent - программа для загрузки торрент-файлов.

Скачать byTorrent.exe (1,5 МБ)

Скачать byTorrent.zip (0,6 МБ)

Поддержи torrent.by
российских рублей
(300 российских рублей это 4$)

Обратная связь rss

End game ©