↑↓torrent.by
Поиск
Логин:  Регистрация
Пароль:

Варшава'21 / Рашн Гейт [S01] (2024) WEBRip 1080p

download Скачать торрент-файл   magnet Магнитная ссылка Размер: 20.58 GB Добавлен: 2024-07-03 05:00
Пиры будут получены из сети DHT
Последний сидер был замечен 2024-07-05 19:39
Информация о фильме Оригинальное название: Варшава'21 / Рашн Гейт Год выпуска: 2024 Жанр: Детектив Выпущено: Россия, Медведь, Okko Studios Режиссер: Феликс Герчиков В ролях: Дмитрий Миллер, Дмитрий Куличков, Валерия Шкирандо, Константин Крюков, Сергей Юшкевич, Андрей Ильин, Юрий Батурин, Николай Козак, Анатолий Котенёв, Юрий Беляев, Сергей Гурьев О фильме: В ходе предвыборной гонки за кресло президента Польши цинично убивают знаменитого журналиста Козельского. Польские телеканалы моментально подхватывают версию о вмешательстве России во внутренние дела страны, с целью поддержки силезских сепаратистов и дестабилизации обстановки. В качестве доказательства по ТВ крутят аудиозапись разговора российского посла Конобеева и одного из кандидатов в президенты Домбровского, которая, якобы, была разослана с почты убитого журналиста. Из небольшой искры раздувается геополитический пожар, способный нанести огромный ущерб интересам страны. Скомпрометированный сотрудник дипмиссии попадает в больницу с инфарктом, а на его место прибывает кризисный дипломат Вячеслав Васильев. Ему предстоит доказать, что обвинения в адрес Москвы не имеют под собой никаких оснований. Файл Формат: MKV Качество: WEBRip 1080p Видео: MPEG-4 AVC, ~ 5000 Кбит/с, 1920x1080 Аудио: E-AC3, 6 ch, 384 Кбит/с Продолжительность: 12x ~ 00:46:00 Язык: Русский Субтитры: нет
[+] MediaInfo: General Unique ID : 301031425431680679368667393285880776829 (0xE2788B2C4190B2A43B00DC62EC87887D) Complete name : F:TorrentsВаршава21.S01.1080p.WEB-DL.x264Варшава21.S01E01.1080p.WEB-DL.x264.mkv Format : Matroska Format version : Version 4 File size : 1.70 GiB Duration : 46 min 3 s Overall bit rate : 5 287 kb/s Frame rate : 25.000 FPS Encoded date : 2024-06-09 23:16:52 UTC Writing application : mkvmerge v82.0 ('I'm The President') 64-bit Writing library : libebml v1.4.5 + libmatroska v1.7.1 Video ID : 1 Format : AVC Format/Info : Advanced Video Codec Format profile : High@L4 Format settings : CABAC / 3 Ref Frames Format settings, CABAC : Yes Format settings, Reference : 3 frames Codec ID : V_MPEG4/ISO/AVC Duration : 46 min 3 s Bit rate : 5 000 kb/s Width : 1 920 pixels Height : 1 080 pixels Display aspect ratio : 16:9 Frame rate mode : Constant Frame rate : 25.000 FPS Color space : YUV Chroma subsampling : 4:2:0 Bit depth : 8 bits Scan type : Progressive Bits/(Pixel*Frame) : 0.096 Stream size : 1.58 GiB (93%) Writing library : x264 core 164 r3095 baee400 Encoding settings : cabac=1 / ref=4 / deblock=1:-1:-1 / analyse=0x3:0x133 / me=umh / subme=9 / psy=1 / psy_rd=0.40:1.00 / mixed_ref=1 / me_range=24 / chroma_me=1 / trellis=0 / 8x8dct=1 / cqm=0 / deadzone=21,11 / fast_pskip=1 / chroma_qp_offset=-2 / threads=3 / lookahead_threads=1 / sliced_threads=0 / nr=0 / decimate=1 / interlaced=0 / bluray_compat=0 / stitchable=1 / constrained_intra=0 / bframes=8 / b_pyramid=1 / b_adapt=0 / b_bias=0 / direct=3 / weightb=1 / open_gop=0 / weightp=2 / keyint=75 / keyint_min=38 / scenecut=0 / intra_refresh=0 / rc_lookahead=40 / rc=2pass / mbtree=1 / bitrate=5000 / ratetol=1.0 / qcomp=0.80 / qpmin=1 / qpmax=69 / qpstep=4 / cplxblur=20.0 / qblur=0.5 / vbv_maxrate=7500 / vbv_bufsize=10000 / nal_hrd=none / filler=0 / ip_ratio=1.40 / aq=1:1.00 Language : English Default : Yes Forced : No Color range : Limited Color primaries : BT.709 Transfer characteristics : BT.709 Matrix coefficients : BT.709 Audio ID : 2 Format : E-AC-3 Format/Info : Enhanced AC-3 Commercial name : Dolby Digital Plus Codec ID : A_EAC3 Duration : 46 min 3 s Bit rate mode : Constant Bit rate : 384 kb/s Channel(s) : 6 channels Channel layout : L R C LFE Ls Rs Sampling rate : 48.0 kHz Frame rate : 31.250 FPS (1536 SPF) Bit depth : 32 bits Compression mode : Lossy Stream size : 127 MiB (7%) Language : Russian Service kind : Complete Main Default : Yes Forced : No
[+] Скриншоты

Всего файлов в раздаче: 12 
[NOOBDL]Варшава21.S01E01.1080p.WEB-DL.x264.mkv1.70 GB
[NOOBDL]Варшава21.S01E02.1080p.WEB-DL.x264.mkv1.64 GB
[NOOBDL]Варшава21.S01E03.1080p.WEB-DL.x264.mkv1.70 GB
[NOOBDL]Варшава21.S01E04.1080p.WEB-DL.x264.mkv1.70 GB
[NOOBDL]Варшава21.S01E05.1080p.WEB-DL.x264.mkv1.76 GB
[NOOBDL]Варшава21.S01E06.1080p.WEB-DL.x264.mkv1.65 GB
[NOOBDL]Варшава21.S01E07.1080p.WEB-DL.x264.mkv1.78 GB
[NOOBDL]Варшава21.S01E08.1080p.WEB-DL.x264.mkv1.73 GB
[NOOBDL]Варшава21.S01E09.1080p.WEB-DL.x264.mkv1.67 GB
[NOOBDL]Варшава21.S01E10.1080p.WEB-DL.x264.mkv1.71 GB
Показать все файлы

Похожие раздачи по запросу - Варшава'21
Вчера magnet Oxygen Not Included Bundle [v U52-622509-SC + DLC's] (2019) PC | RePack от FitGirl 984.25 MB ↑ 0 ↓ 0
Вчера magnet Чип и Дейл спешат на помощь / Chip 'n Dale: Rescue Rangers [S01-03] (1989-1990) BDRip 720p | D 33.45 GB ↑ 0 ↓ 0
Вчера magnet Outsiders Blues Band - Riff 'N Blues (2024) MP3 90.76 MB ↑ 0 ↓ 0
2024-07-20 magnet No Man's Sky [v 5.00 + DLC] (2016) PC | RePack от FitGirl 11.48 GB ↑ 0 ↓ 0
2024-07-20 magnet Королевство Сатурна. Эпическая миссия Кассини / Kingdom of Saturn. Cassini's epic Quest (2017) HDTV 1080i | P2 2.67 GB ↑ 0 ↓ 0
2024-07-20 magnet Новая Луна Аполлона / Apollo's. New Moon (2019) HDTV 1080i | P2 2.56 GB ↑ 0 ↓ 0
2024-07-20 magnet Материнский инстинкт / Mothers' Instinct (2024) BDRemux 1080p | D 27.52 GB ↑ 0 ↓ 2

Комментарии


Зарегистрируйтесь чтобы добавить комментарий
Торрент клиент
byTorrent - программа для загрузки торрент-файлов.

Скачать byTorrent.exe (1,5 МБ)

Скачать byTorrent.zip (0,6 МБ)

Поддержи torrent.by
российских рублей
(300 российских рублей это 4$)

Обратная связь rss

End game ©