↑↓torrent.by
Поиск
Логин:  Регистрация
Пароль:

Исполнение приказа / Командная цепь / Chain of Command (2000) DVDRip | A

download Скачать торрент-файл   magnet Магнитная ссылка Размер: 1.45 GB Добавлен: 2024-07-03 11:00
Пиры будут получены из сети DHT
Последний сидер был замечен 2024-07-04 23:43
Исполнение приказа Информация о фильме Год релиза: 2000 Выпущено: США Жанр: Боевик, триллер, приключения Режиссер: Джон Терлески В ролях: Рой Шайдер, Патрик Малдун, Мария Кончита Алонсо, Майкл Бин, Рик Янг, Ли Сын-хи, Уильям Р. Моусес, Том Райт, Филип Тан, Майкл Мэнтелл О фильме: Фильм-фантазия на тему хитроумного похищения президента США бандитами, ненавидящими Китай и США. Цель - столкнуть в своекорыстных намерениях эти две мировые державы в "маленькой ядерной войне". Для выполнения этой кровавой миссии бандиты внедряют в ближайшую охрану президента своих людей. И все бы очень хорошо у них получилось, если бы не два маленьких обстоятельства: 1) один из сотрудников охраны раньше на две минуты сменился с дежурства (по малой нужде) и 2) оказалось, что охранник чемодана с ядерной кнопкой вовсе не обязан обеспечивать неприкосновенность президента. Продолжительность: 01:31:40 Перевод: Авторский одноголосый закадровый Владимир Сонькин Субтитры: нет Качество видео: DVDRip Формат видео: AVI Видео: Xvid MPEG-4, 704x528 (1.33:1), 25.000 fps, 1 864 Kbps Аудио 1: 48 kHz, AC3 Dolby Digital, 2/0 (L,R) ch (моно), ~192 kbps Аудио 2: 48 kHz, AC3 Dolby Digital, 2/0 (L,R) ch, ~192 kbps Реклама: Отсутствует
[+] MediaInfo Исполнение приказа (2000) (Chain of Command) .avi Format : AVI Format/Info : Audio Video Interleave Format settings : BitmapInfoHeader / WaveFormatEx File size : 1.45 GiB Duration : 1 h 31 min Overall bit rate : 2 262 kb/s Frame rate : 25.000 FPS Writing application : VirtualDubMod 1.5.10.2 (build 2540/release) Writing library : VirtualDubMod build 2540/release Video ID : 0 Format : MPEG-4 Visual Format profile : Advanced Simple@L5 Format settings : BVOP1 / Custom Matrix Format settings, BVOP : 1 Format settings, QPel : No Format settings, GMC : No warppoints Format settings, Matrix : Custom Codec ID : XVID Codec ID/Hint : XviD Duration : 1 h 31 min Bit rate : 1 864 kb/s Width : 704 pixels Height : 528 pixels Display aspect ratio : 4:3 Frame rate : 25.000 FPS Color space : YUV Chroma subsampling : 4:2:0 Bit depth : 8 bits Scan type : Progressive Compression mode : Lossy Bits/(Pixel*Frame) : 0.201 Stream size : 1.19 GiB (82%) Writing library : XviD 73 Audio #1 ID : 1 Format : AC-3 Format/Info : Audio Coding 3 Commercial name : Dolby Digital Codec ID : 2000 Duration : 1 h 31 min Bit rate mode : Constant Bit rate : 192 kb/s Channel(s) : 2 channels Channel layout : L R Sampling rate : 48.0 kHz Frame rate : 31.250 FPS (1536 SPF) Compression mode : Lossy Stream size : 126 MiB (8%) Alignment : Split across interleaves Interleave, duration : 40 ms (1.00 video frame) Interleave, preload duratio : 500 ms Service kind : Complete Main Audio #2 ID : 2 Format : AC-3 Format/Info : Audio Coding 3 Commercial name : Dolby Digital Codec ID : 2000 Duration : 1 h 31 min Bit rate mode : Constant Bit rate : 192 kb/s Channel(s) : 2 channels Channel layout : L R Sampling rate : 48.0 kHz Frame rate : 31.250 FPS (1536 SPF) Compression mode : Lossy Stream size : 126 MiB (8%) Alignment : Split across interleaves Interleave, duration : 40 ms (1.00 video frame) Interleave, preload duratio : 500 ms Service kind : Complete Main
[+] Скриншоты

Всего файлов в раздаче: 1 
Исполнение приказа (2000) (Chain of Command) [by ale_x2008].avi1.45 GB

Комментарии


Зарегистрируйтесь чтобы добавить комментарий
Торрент клиент
byTorrent - программа для загрузки торрент-файлов.

Скачать byTorrent.exe (1,5 МБ)

Скачать byTorrent.zip (0,6 МБ)

Поддержи torrent.by
российских рублей
(300 российских рублей это 4$)

Обратная связь rss

End game ©