↑↓torrent.by
Поиск
Логин:  Регистрация
Пароль:

Тюряга / Lock Up (1989) BDRip 720p | P, P2, A

download Скачать торрент-файл   magnet Магнитная ссылка Размер: 15.27 GB Добавлен: 2024-07-03 11:00
Пиры будут получены из сети DHT
Последний сидер был замечен 2024-07-03 11:00
Информация о фильме Название: Тюряга Оригинальное название: Lock Up Год выхода: 1989 Жанр: боевик, драма, криминал Режиссер: Джон Флинн В ролях: Сильвестр Сталлоне, Дональд Сазерленд, Джон Эймос, Сонни Лэндэм, Том Сайзмор, Фрэнк МакРей, Дарлэнн Флюгел, Уильям Аллен Янг, Ларри Романо, Джордан Лунд, Джон Лилла, Джерри Стривелли, Дэвид Энтони Маршалл, Курек Эшли, Майкл Петрони, Дэнни Трехо, Фрэнк Д’Аннибал, Тони Лип, Кларенс Мур, Джо Пентанджело, Эли Рич, Бо Ракер, Рэнди Сэндкул, Роберт Васкез, Тони Мунафо, Фрэнк Пеше, Трой Карви мл. О фильме: Фрэнк Леоне — самый обычный парень, совершил ошибку в жизни, убив человека обороняясь. Он отбывает оставшиеся ему полгода и с нетерпением смотрит в будущее, которое он проведет со своей женой. В будущее, которое может и не наступить, так как в один прекрасный день без всяких объяснений его переводят в одну из тюрем строгого режима и по совместительству самую гнусную тюрягу в стране... Страна: CША Студия: Carolco Pictures Inc., Gordon Company, White Eagle Продолжительность: 01:48:40 Перевод: Профессиональный (многоголосый закадровый) - РТР Перевод 2: Профессиональный (двухголосый закадровый) - R5 Перевод 3: Профессиональный (двухголосый закадровый) - ОРТ Перевод 4: Профессиональный (двухголосый закадровый) - Премьер Видео Фильм Перевод 5: Авторский (одноголосый закадровый) - Андрей Гаврилов Перевод 6: Авторский (одноголосый закадровый) - Юрий Живов Перевод 7: Авторский (одноголосый закадровый) - Вартан Дохалов Перевод 8: Авторский (одноголосый закадровый) - Василий Горчаков Перевод 9: Авторский (одноголосый закадровый) - Александр Марченко Перевод 10: Авторский (одноголосый закадровый) - Виктор Махонько Перевод 11: Одноголосый закадровый - неизвестный из студии Поликорн (Санкт-Петербург) Файл Кодек: х.264 Качество: BDRip 720p Видео: 9900 Кбит/сек, AVC 1280*692 (1,85:1), 24,000 кадра/сек, CABAC Аудио: Русский, 192 Кбит/сек, 48,0 КГц, 2 канала, AC-3 - РТР Аудио 2: Русский, 1509 Кбит/сек, 48,0 КГц, 24 бит, 2 канала, DTS - R5 Аудио 3: Русский, 192 Кбит/сек, 48,0 КГц, 2 канала, AC-3 - ОРТ Аудио 4: Русский, 192 Кбит/сек, 48,0 КГц, 2 канала, AC-3 - Премьер Аудио 5: Русский, 1509 Кбит/сек, 48,0 КГц, 24 бит, 2 канала, DTS - Гаврилов Аудио 6: Русский, 1509 Кбит/сек, 48,0 КГц, 24 бит, 2 канала, DTS - Живов Аудио 7: Русский, 1509 Кбит/сек, 48,0 КГц, 24 бит, 2 канала, DTS - Дохалов Аудио 8: Русский, 1509 Кбит/сек, 48,0 КГц, 24 бит, 2 канала, DTS - Горчаков Аудио 9: Русский, 192 Кбит/сек, 48,0 КГц, 2 канала, AC-3 - Марченко Аудио 10: Русский, 192 Кбит/сек, 48,0 КГц, 2 канала, AC-3 - Махонько Аудио 11: Русский, 192 Кбит/сек, 48,0 КГц, 2 канала, AC-3 - Поликорн Аудио 12: Английский, 1509 Кбит/сек, 48,0 КГц, 24 бит, 2 канала, DTS Формат субтитров: softsub (SRT)
[+] MediaInfo Общее Уникальный идентификатор : 55867093949668533645603379110272302241 (0x2A079C64E21C5D2A508DCCF742BFFCA1) Полное имя : R:MONARХудожественные фильмыЗарубежное киноТюряга (1989) BDRip 720p.mkv Формат : Matroska Версия формата : Version 4 Размер файла : 15,3 Гбайт Продолжительность : 1 ч. 48 м. Общий поток : 20,1 Мбит/сек Название фильма : Lock up (1989) Дата кодирования : UTC 2019-12-24 18:59:49 Программа кодирования : mkvmerge v41.0.0 ('Smarra') 64-bit Библиотека кодирования : libebml v1.3.9 + libmatroska v1.5.2 Обложка : Yes Attachments : cover.jpg / cover.jpg Видео Идентификатор : 1 Формат : AVC Формат/Информация : Advanced Video Codec Профиль формата : High@L4.1 Настройки формата : CABAC / 9 Ref Frames Параметр CABAC формата : Да Параметр RefFrames формата : 9 кадров Идентификатор кодека : V_MPEG4/ISO/AVC Продолжительность : 1 ч. 48 м. Битрейт : 9900 Кбит/сек Ширина : 1280 пикселей Высота : 692 пикселя Соотношение сторон : 1,85:1 Режим частоты кадров : Постоянный Частота кадров : 24,000 кадра/сек Цветовое пространство : YUV Субдискретизация насыщенности : 4:2:0 Битовая глубина : 8 бит Тип развёртки : Прогрессивная Бит/(Пиксели*Кадры) : 0.466 Размер потока : 7,51 Гбайт (49%) Библиотека кодирования : x264 core 158 r2984+49 ~ LoRD Настройки программы : cabac=1 / ref=9 / deblock=1:-3:-3 / analyse=0x3:0x133 / me=umh / subme=10 / psy=1 / fade_compensate=0.00 / psy_rd=1.15:0.15 / mixed_ref=1 / me_range=32 / chroma_me=1 / trellis=2 / 8x8dct=1 / cqm=0 / deadzone=21,11 / fast_pskip=0 / chroma_qp_offset=-3 / threads=12 / lookahead_threads=2 / sliced_threads=0 / nr=0 / decimate=0 / interlaced=0 / bluray_compat=0 / constrained_intra=0 / fgo=0 / bframes=8 / b_pyramid=2 / b_adapt=2 / b_bias=0 / direct=3 / weightb=1 / open_gop=0 / weightp=2 / keyint=250 / keyint_min=24 / scenecut=40 / intra_refresh=0 / rc_lookahead=60 / rc=2pass / mbtree=0 / bitrate=9900 / ratetol=1.0 / qcomp=0.60 / qpmin=0:0:0 / qpmax=69:69:69 / qpstep=4 / cplxblur=20.0 / qblur=0.5 / vbv_maxrate=50000 / vbv_bufsize=62500 / nal_hrd=none / filler=0 / ip_ratio=1.25 / pb_ratio=1.25 / aq=3:0.70 / aq-sensitivity=10.00 / aq-factor=1.00:1.00:1.00 / aq2=0 / aq3=0 Язык : English Default : Да Forced : Нет Аудио #1 Идентификатор : 2 Формат : AC-3 Формат/Информация : Audio Coding 3 Коммерческое название : Dolby Digital Идентификатор кодека : A_AC3 Продолжительность : 1 ч. 48 м. Вид битрейта : Постоянный Битрейт : 192 Кбит/сек Каналы : 2 канала ChannelLayout : L R Частота : 48,0 КГц Частота кадров : 31,250 кадров/сек (1536 SPF) Метод сжатия : С потерями Размер потока : 149 Мбайт (1%) Заголовок : MVO (RTR) Язык : Russian ServiceKind/String : Complete Main Default : Да Forced : Нет Аудио #2 Идентификатор : 3 Формат : DTS Формат/Информация : Digital Theater Systems Идентификатор кодека : A_DTS Продолжительность : 1 ч. 48 м. Вид битрейта : Постоянный Битрейт : 1509 Кбит/сек Каналы : 6 каналов ChannelLayout : C L R Ls Rs LFE Частота : 48,0 КГц Частота кадров : 93,750 кадра/сек (512 SPF) Битовая глубина : 24 бит Метод сжатия : С потерями Размер потока : 1,15 Гбайт (8%) Заголовок : DVO (R5) Язык : Russian Default : Нет Forced : Нет Аудио #3 Идентификатор : 4 Формат : AC-3 Формат/Информация : Audio Coding 3 Коммерческое название : Dolby Digital Идентификатор кодека : A_AC3 Продолжительность : 1 ч. 48 м. Вид битрейта : Постоянный Битрейт : 192 Кбит/сек Каналы : 2 канала ChannelLayout : L R Частота : 48,0 КГц Частота кадров : 31,250 кадров/сек (1536 SPF) Метод сжатия : С потерями Размер потока : 149 Мбайт (1%) Заголовок : DVO (ORT) Язык : Russian ServiceKind/String : Complete Main Default : Нет Forced : Нет Аудио #4 Идентификатор : 5 Формат : AC-3 Формат/Информация : Audio Coding 3 Коммерческое название : Dolby Digital Идентификатор кодека : A_AC3 Продолжительность : 1 ч. 48 м. Вид битрейта : Постоянный Битрейт : 192 Кбит/сек Каналы : 2 канала ChannelLayout : L R Частота : 48,0 КГц Частота кадров : 31,250 кадров/сек (1536 SPF) Метод сжатия : С потерями Размер потока : 149 Мбайт (1%) Заголовок : DVO (Premjer) Язык : Russian ServiceKind/String : Complete Main Default : Нет Forced : Нет Аудио #5 Идентификатор : 6 Формат : DTS Формат/Информация : Digital Theater Systems Идентификатор кодека : A_DTS Продолжительность : 1 ч. 48 м. Вид битрейта : Постоянный Битрейт : 1509 Кбит/сек Каналы : 6 каналов ChannelLayout : C L R Ls Rs LFE Частота : 48,0 КГц Частота кадров : 93,750 кадра/сек (512 SPF) Битовая глубина : 24 бит Метод сжатия : С потерями Размер потока : 1,15 Гбайт (8%) Заголовок : AVO (Gavrilov) Язык : Russian Default : Нет Forced : Нет Аудио #6 Идентификатор : 7 Формат : DTS Формат/Информация : Digital Theater Systems Идентификатор кодека : A_DTS Продолжительность : 1 ч. 48 м. Вид битрейта : Постоянный Битрейт : 1509 Кбит/сек Каналы : 6 каналов ChannelLayout : C L R Ls Rs LFE Частота : 48,0 КГц Частота кадров : 93,750 кадра/сек (512 SPF) Битовая глубина : 24 бит Метод сжатия : С потерями Размер потока : 1,15 Гбайт (8%) Заголовок : AVO (Givov) Язык : Russian Default : Нет Forced : Нет Аудио #7 Идентификатор : 8 Формат : DTS Формат/Информация : Digital Theater Systems Идентификатор кодека : A_DTS Продолжительность : 1 ч. 48 м. Вид битрейта : Постоянный Битрейт : 1509 Кбит/сек Каналы : 6 каналов ChannelLayout : C L R Ls Rs LFE Частота : 48,0 КГц Частота кадров : 93,750 кадра/сек (512 SPF) Битовая глубина : 24 бит Метод сжатия : С потерями Размер потока : 1,15 Гбайт (8%) Заголовок : AVO (Dohalov) Язык : Russian Default : Нет Forced : Нет Аудио #8 Идентификатор : 9 Формат : DTS Формат/Информация : Digital Theater Systems Идентификатор кодека : A_DTS Продолжительность : 1 ч. 48 м. Вид битрейта : Постоянный Битрейт : 1509 Кбит/сек Каналы : 2 канала ChannelLayout : L R Частота : 48,0 КГц Частота кадров : 93,750 кадра/сек (512 SPF) Битовая глубина : 16 бит Метод сжатия : С потерями Размер потока : 1,15 Гбайт (8%) Заголовок : AVO (Gorchakov) Язык : Russian Default : Нет Forced : Нет Аудио #9 Идентификатор : 10 Формат : AC-3 Формат/Информация : Audio Coding 3 Коммерческое название : Dolby Digital Идентификатор кодека : A_AC3 Продолжительность : 1 ч. 48 м. Вид битрейта : Постоянный Битрейт : 192 Кбит/сек Каналы : 2 канала ChannelLayout : L R Частота : 48,0 КГц Частота кадров : 31,250 кадров/сек (1536 SPF) Метод сжатия : С потерями Размер потока : 149 Мбайт (1%) Заголовок : AVO (Marchenko) Язык : Russian ServiceKind/String : Complete Main Default : Нет Forced : Нет Аудио #10 Идентификатор : 11 Формат : AC-3 Формат/Информация : Audio Coding 3 Коммерческое название : Dolby Digital Идентификатор кодека : A_AC3 Продолжительность : 1 ч. 48 м. Вид битрейта : Постоянный Битрейт : 192 Кбит/сек Каналы : 2 канала ChannelLayout : L R Частота : 48,0 КГц Частота кадров : 31,250 кадров/сек (1536 SPF) Метод сжатия : С потерями Размер потока : 149 Мбайт (1%) Заголовок : AVO (Mahonko) Язык : Russian ServiceKind/String : Complete Main Default : Нет Forced : Нет Аудио #11 Идентификатор : 12 Формат : AC-3 Формат/Информация : Audio Coding 3 Коммерческое название : Dolby Digital Идентификатор кодека : A_AC3 Продолжительность : 1 ч. 48 м. Вид битрейта : Постоянный Битрейт : 192 Кбит/сек Каналы : 2 канала ChannelLayout : L R Частота : 48,0 КГц Частота кадров : 31,250 кадров/сек (1536 SPF) Метод сжатия : С потерями Размер потока : 149 Мбайт (1%) Заголовок : AVO (Polikorn) Язык : Russian ServiceKind/String : Complete Main Default : Нет Forced : Нет Аудио #12 Идентификатор : 13 Формат : DTS Формат/Информация : Digital Theater Systems Идентификатор кодека : A_DTS Продолжительность : 1 ч. 48 м. Вид битрейта : Постоянный Битрейт : 1509 Кбит/сек Каналы : 6 каналов ChannelLayout : C L R Ls Rs LFE Частота : 48,0 КГц Частота кадров : 93,750 кадра/сек (512 SPF) Битовая глубина : 24 бит Метод сжатия : С потерями Размер потока : 1,15 Гбайт (8%) Заголовок : original Язык : English Default : Нет Forced : Нет Текст #1 Идентификатор : 14 Формат : UTF-8 Идентификатор кодека : S_TEXT/UTF8 Идентификатор кодека/Информация : UTF-8 Plain Text Продолжительность : 1 ч. 43 м. Битрейт : 76 бит/сек ElementCount : 956 Размер потока : 58,2 Кбайт (0%) Заголовок : full Язык : Russian Default : Нет Forced : Нет Текст #2 Идентификатор : 15 Формат : UTF-8 Идентификатор кодека : S_TEXT/UTF8 Идентификатор кодека/Информация : UTF-8 Plain Text Продолжительность : 1 ч. 42 м. Битрейт : 41 бит/сек ElementCount : 1118 Размер потока : 31,0 Кбайт (0%) Заголовок : full Язык : English Default : Нет Forced : Нет Меню 00:00:00.000 : :Chapter 01 00:08:11.750 : :Chapter 02 00:18:44.708 : :Chapter 03 00:26:06.792 : :Chapter 04 00:32:52.792 : :Chapter 05 00:40:58.500 : :Chapter 06 00:54:48.083 : :Chapter 07 01:06:00.792 : :Chapter 08 01:15:18.958 : :Chapter 09 01:23:07.708 : :Chapter 10 01:36:08.000 : :Chapter 11 01:44:57.250 : :Chapter 12
[+] Скриншоты

Всего файлов в раздаче: 1 

Комментарии


Зарегистрируйтесь чтобы добавить комментарий
Торрент клиент
byTorrent - программа для загрузки торрент-файлов.

Скачать byTorrent.exe (1,5 МБ)

Скачать byTorrent.zip (0,6 МБ)

Поддержи torrent.by
российских рублей
(300 российских рублей это 4$)

Обратная связь rss

End game ©