↑↓torrent.by
Поиск
Логин:  Регистрация
Пароль:

Kaipa - Sommargryningsljus [24Bit, Hi-Res] (2024) FLAC

download Скачать торрент-файл   magnet Магнитная ссылка Размер: 960.21 MB Добавлен: 2024-07-03 11:00
Пиры будут получены из сети DHT
Последний сидер был замечен 2024-07-10 02:34
Kaipa - Sommargryningsljus (2024) Жанр: Symphonic-Progressive-Metal, Progressive-Rock Издание: 2024 InsideOutMusic under license from Kaipa Источник: ссылка Продолжительность: 01:20:07 Кодек: FLAC 24/44.1 Битрейт: Lossless|WEB-DL Тип рипа: tracks Треклист: 01. Sommarskymningsljus (1:33) 02. Seven Birds (9:49) 03. Like Thousand Dawns (11:09) 04. Revelationview (9:28) 05. Chased by Wolves and Burned by the Sun (10:18) 06. Spiderweb Train (15:29) 07. Songs in Our Hands (13:01) 08. Sommargryningsljus (3:57) 09. Sommargryningsljus (Single Edit) (5:23)
[+] Дополнительная информация: https://www.kaipa.info https://www.facebook.com/Kaipa.music
[+] Отчёт DR: foobar2000 2.0 / Замер динамического диапазона (DR) 1.1.1 Дата отчёта: 2024-07-02 12:37:59 -------------------------------------------------------------------------------- Анализ: Kaipa / Sommargryningsljus -------------------------------------------------------------------------------- DR Пики RMS Продолжительность трека -------------------------------------------------------------------------------- DR12 -1.02 дБ -15.53 дБ 1:33 01-Sommarskymningsljus DR6 -1.00 дБ -9.11 дБ 9:49 02-Seven Birds DR6 -1.00 дБ -8.21 дБ 11:09 03-Like Thousand Dawns DR6 -1.00 дБ -8.50 дБ 9:28 04-Revelationview DR6 -1.00 дБ -8.93 дБ 10:18 05-Chased by Wolves and Burned by the Sun DR6 -1.00 дБ -9.07 дБ 15:29 06-Spiderweb Train DR6 -1.00 дБ -8.21 дБ 13:01 07-Songs in Our Hands DR6 -1.00 дБ -11.47 дБ 3:57 08-Sommargryningsljus DR6 -1.00 дБ -11.24 дБ 5:23 09-Sommargryningsljus (Single Edit) -------------------------------------------------------------------------------- Количество треков: 9 Реальные значения DR: DR7 Частота: 44100 Гц Каналов: 2 Разрядность: 24 Битрейт: 1548 кбит/с Кодек: FLAC ================================================================================
[+] Отчёт Mi: Format : FLAC Format/Info : Free Lossless Audio Codec File size : 16.1 MiB Duration : 1 min 32 s Overall bit rate mode : Variable Overall bit rate : 1 456 kb/s Album : Sommargryningsljus Album/Performer : Kaipa Part : 1 Part/Total : 1 Track name : Sommarskymningsljus Track name/Position : 1 Track name/Total : 9 Performer : Kaipa Composer : Aleena Gibson / Hans Lundin Producer : InsideOutMusic Label : InsideOutMusic Genre : Rock Recorded date : 2024-06-28 ISRC : SEWRU2400101 Copyright : (P) 2024 InsideOutMusic under license from Kaipa Cover : Yes Cover type : Cover (front) Cover MIME : image/jpeg PRODUCER : Hans Lundin INVOLVEDPEOPLE : Aleena Gibson, Composer - Hans Lundin, Composer, Lyricist, Producer, Mixing Engineer - Kaipa, MainArtist, AssociatedPerformer - Martin Igelstrom, Mastering Engineer, Mixing Engineer UPC : 0196871784450 MEDIATYPE : album ITUNESADVISORY : 0 URL : https://www.qobuz.com/fr-fr/album/sommargryningsljus-kaipa/pcwmgnlfz7cuc Audio Format : FLAC Format/Info : Free Lossless Audio Codec Duration : 1 min 32 s Bit rate mode : Variable Bit rate : 1 448 kb/s Channel(s) : 2 channels Channel layout : L R Sampling rate : 44.1 kHz Bit depth : 24 bits Compression mode : Lossless Stream size : 16.0 MiB (99%) General Complete name : C:Deemix MusicKaipaSommargryningsljusFLAC (24bit-44.1kHz)�2 - Seven Birds.flac Format : FLAC Format/Info : Free Lossless Audio Codec File size : 117 MiB Duration : 9 min 49 s Overall bit rate mode : Variable Overall bit rate : 1 660 kb/s Album : Sommargryningsljus Album/Performer : Kaipa Part : 1 Part/Total : 1 Track name : Seven Birds Track name/Position : 2 Track name/Total : 9 Performer : Kaipa Composer : Hans Lundin Producer : InsideOutMusic Label : InsideOutMusic Genre : Rock Recorded date : 2024-06-28 ISRC : SEWRU2400102 Copyright : (P) 2024 InsideOutMusic under license from Kaipa Cover : Yes Cover type : Cover (front) Cover MIME : image/jpeg PRODUCER : Hans Lundin INVOLVEDPEOPLE : Hans Lundin, Composer, Lyricist, Producer, Mixing Engineer - Kaipa, MainArtist, AssociatedPerformer - Martin Igelstrom, Mastering Engineer, Mixing Engineer UPC : 0196871784450 MEDIATYPE : album ITUNESADVISORY : 0 URL : https://www.qobuz.com/fr-fr/album/sommargryningsljus-kaipa/pcwmgnlfz7cuc Audio Format : FLAC Format/Info : Free Lossless Audio Codec Duration : 9 min 49 s Bit rate mode : Variable Bit rate : 1 658 kb/s Channel(s) : 2 channels Channel layout : L R Sampling rate : 44.1 kHz Bit depth : 24 bits Compression mode : Lossless Stream size : 116 MiB (100%) General Complete name : C:Deemix MusicKaipaSommargryningsljusFLAC (24bit-44.1kHz)�3 - Like Thousand Dawns.flac Format : FLAC Format/Info : Free Lossless Audio Codec File size : 136 MiB Duration : 11 min 9 s Overall bit rate mode : Variable Overall bit rate : 1 702 kb/s Album : Sommargryningsljus Album/Performer : Kaipa Part : 1 Part/Total : 1 Track name : Like Thousand Dawns Track name/Position : 3 Track name/Total : 9 Performer : Kaipa Composer : Hans Lundin Producer : InsideOutMusic Label : InsideOutMusic Genre : Rock Recorded date : 2024-06-28 ISRC : SEWRU2400103 Copyright : (P) 2024 InsideOutMusic under license from Kaipa Cover : Yes Cover type : Cover (front) Cover MIME : image/jpeg PRODUCER : Hans Lundin INVOLVEDPEOPLE : Hans Lundin, Composer, Lyricist, Producer, Mixing Engineer - Kaipa, MainArtist, AssociatedPerformer - Martin Igelstrom, Mastering Engineer, Mixing Engineer UPC : 0196871784450 MEDIATYPE : album ITUNESADVISORY : 0 URL : https://www.qobuz.com/fr-fr/album/sommargryningsljus-kaipa/pcwmgnlfz7cuc Audio Format : FLAC Format/Info : Free Lossless Audio Codec Duration : 11 min 9 s Bit rate mode : Variable Bit rate : 1 701 kb/s Channel(s) : 2 channels Channel layout : L R Sampling rate : 44.1 kHz Bit depth : 24 bits Compression mode : Lossless Stream size : 136 MiB (100%) General Complete name : C:Deemix MusicKaipaSommargryningsljusFLAC (24bit-44.1kHz)�4 - Revelationview.flac Format : FLAC Format/Info : Free Lossless Audio Codec File size : 116 MiB Duration : 9 min 28 s Overall bit rate mode : Variable Overall bit rate : 1 719 kb/s Album : Sommargryningsljus Album/Performer : Kaipa Part : 1 Part/Total : 1 Track name : Revelationview Track name/Position : 4 Track name/Total : 9 Performer : Kaipa Composer : Hans Lundin Producer : InsideOutMusic Label : InsideOutMusic Genre : Rock Recorded date : 2024-06-28 ISRC : SEWRU2400104 Copyright : (P) 2024 InsideOutMusic under license from Kaipa Cover : Yes Cover type : Cover (front) Cover MIME : image/jpeg PRODUCER : Hans Lundin INVOLVEDPEOPLE : Hans Lundin, Composer, Lyricist, Producer, Mixing Engineer - Kaipa, MainArtist, AssociatedPerformer - Martin Igelstrom, Mastering Engineer, Mixing Engineer UPC : 0196871784450 MEDIATYPE : album ITUNESADVISORY : 0 URL : https://www.qobuz.com/fr-fr/album/sommargryningsljus-kaipa/pcwmgnlfz7cuc Audio Format : FLAC Format/Info : Free Lossless Audio Codec Duration : 9 min 28 s Bit rate mode : Variable Bit rate : 1 717 kb/s Channel(s) : 2 channels Channel layout : L R Sampling rate : 44.1 kHz Bit depth : 24 bits Compression mode : Lossless Stream size : 116 MiB (100%) General Complete name : C:Deemix MusicKaipaSommargryningsljusFLAC (24bit-44.1kHz)�5 - Chased by Wolves and Burned by the Sun.flac Format : FLAC Format/Info : Free Lossless Audio Codec File size : 125 MiB Duration : 10 min 17 s Overall bit rate mode : Variable Overall bit rate : 1 699 kb/s Album : Sommargryningsljus Album/Performer : Kaipa Part : 1 Part/Total : 1 Track name : Chased by Wolves and Burned by the Sun Track name/Position : 5 Track name/Total : 9 Performer : Kaipa Composer : Hans Lundin Producer : InsideOutMusic Label : InsideOutMusic Genre : Rock Recorded date : 2024-06-28 ISRC : SEWRU2400105 Copyright : (P) 2024 InsideOutMusic under license from Kaipa Cover : Yes Cover type : Cover (front) Cover MIME : image/jpeg PRODUCER : Hans Lundin INVOLVEDPEOPLE : Hans Lundin, Composer, Lyricist, Producer, Mixing Engineer - Kaipa, MainArtist, AssociatedPerformer - Martin Igelstrom, Mastering Engineer, Mixing Engineer UPC : 0196871784450 MEDIATYPE : album ITUNESADVISORY : 0 URL : https://www.qobuz.com/fr-fr/album/sommargryningsljus-kaipa/pcwmgnlfz7cuc Audio Format : FLAC Format/Info : Free Lossless Audio Codec Duration : 10 min 17 s Bit rate mode : Variable Bit rate : 1 697 kb/s Channel(s) : 2 channels Channel layout : L R Sampling rate : 44.1 kHz Bit depth : 24 bits Compression mode : Lossless Stream size : 125 MiB (100%) General Complete name : C:Deemix MusicKaipaSommargryningsljusFLAC (24bit-44.1kHz)�6 - Spiderweb Train.flac Format : FLAC Format/Info : Free Lossless Audio Codec File size : 186 MiB Duration : 15 min 28 s Overall bit rate mode : Variable Overall bit rate : 1 682 kb/s Album : Sommargryningsljus Album/Performer : Kaipa Part : 1 Part/Total : 1 Track name : Spiderweb Train Track name/Position : 6 Track name/Total : 9 Performer : Kaipa Composer : Hans Lundin Producer : InsideOutMusic Label : InsideOutMusic Genre : Rock Recorded date : 2024-06-28 ISRC : SEWRU2400106 Copyright : (P) 2024 InsideOutMusic under license from Kaipa Cover : Yes Cover type : Cover (front) Cover MIME : image/jpeg PRODUCER : Hans Lundin INVOLVEDPEOPLE : Hans Lundin, Composer, Lyricist, Producer, Mixing Engineer - Kaipa, MainArtist, AssociatedPerformer - Martin Igelstrom, Mastering Engineer, Mixing Engineer UPC : 0196871784450 MEDIATYPE : album ITUNESADVISORY : 0 URL : https://www.qobuz.com/fr-fr/album/sommargryningsljus-kaipa/pcwmgnlfz7cuc Audio Format : FLAC Format/Info : Free Lossless Audio Codec Duration : 15 min 28 s Bit rate mode : Variable Bit rate : 1 681 kb/s Channel(s) : 2 channels Channel layout : L R Sampling rate : 44.1 kHz Bit depth : 24 bits Compression mode : Lossless Stream size : 186 MiB (100%) General Complete name : C:Deemix MusicKaipaSommargryningsljusFLAC (24bit-44.1kHz)�7 - Songs in Our Hands.flac Format : FLAC Format/Info : Free Lossless Audio Codec File size : 157 MiB Duration : 13 min 1 s Overall bit rate mode : Variable Overall bit rate : 1 686 kb/s Album : Sommargryningsljus Album/Performer : Kaipa Part : 1 Part/Total : 1 Track name : Songs in Our Hands Track name/Position : 7 Track name/Total : 9 Performer : Kaipa Composer : Hans Lundin Producer : InsideOutMusic Label : InsideOutMusic Genre : Rock Recorded date : 2024-06-28 ISRC : SEWRU2400107 Copyright : (P) 2024 InsideOutMusic under license from Kaipa Cover : Yes Cover type : Cover (front) Cover MIME : image/jpeg PRODUCER : Hans Lundin INVOLVEDPEOPLE : Hans Lundin, Composer, Lyricist, Producer, Mixing Engineer - Kaipa, MainArtist, AssociatedPerformer - Martin Igelstrom, Mastering Engineer, Mixing Engineer UPC : 0196871784450 MEDIATYPE : album ITUNESADVISORY : 0 URL : https://www.qobuz.com/fr-fr/album/sommargryningsljus-kaipa/pcwmgnlfz7cuc Audio Format : FLAC Format/Info : Free Lossless Audio Codec Duration : 13 min 1 s Bit rate mode : Variable Bit rate : 1 685 kb/s Channel(s) : 2 channels Channel layout : L R Sampling rate : 44.1 kHz Bit depth : 24 bits Compression mode : Lossless Stream size : 157 MiB (100%) General Complete name : C:Deemix MusicKaipaSommargryningsljusFLAC (24bit-44.1kHz)�8 - Sommargryningsljus.flac Format : FLAC Format/Info : Free Lossless Audio Codec File size : 44.1 MiB Duration : 3 min 57 s Overall bit rate mode : Variable Overall bit rate : 1 557 kb/s Album : Sommargryningsljus Album/Performer : Kaipa Part : 1 Part/Total : 1 Track name : Sommargryningsljus Track name/Position : 8 Track name/Total : 9 Performer : Kaipa Composer : Aleena Gibson / Hans Lundin Producer : InsideOutMusic Label : InsideOutMusic Genre : Rock Recorded date : 2024-06-28 ISRC : SEWRU2400108 Copyright : (P) 2024 InsideOutMusic under license from Kaipa Cover : Yes Cover type : Cover (front) Cover MIME : image/jpeg PRODUCER : Hans Lundin INVOLVEDPEOPLE : Aleena Gibson, Composer - Hans Lundin, Composer, Lyricist, Producer, Mixing Engineer - Kaipa, MainArtist, AssociatedPerformer - Martin Igelstrom, Mastering Engineer, Mixing Engineer UPC : 0196871784450 MEDIATYPE : album ITUNESADVISORY : 0 URL : https://www.qobuz.com/fr-fr/album/sommargryningsljus-kaipa/pcwmgnlfz7cuc Audio Format : FLAC Format/Info : Free Lossless Audio Codec Duration : 3 min 57 s Bit rate mode : Variable Bit rate : 1 554 kb/s Channel(s) : 2 channels Channel layout : L R Sampling rate : 44.1 kHz Bit depth : 24 bits Compression mode : Lossless Stream size : 44.0 MiB (100%) General Complete name : C:Deemix MusicKaipaSommargryningsljusFLAC (24bit-44.1kHz)�9 - Sommargryningsljus (Single Edit).flac Format : FLAC Format/Info : Free Lossless Audio Codec File size : 59.6 MiB Duration : 5 min 22 s Overall bit rate mode : Variable Overall bit rate : 1 550 kb/s Album : Sommargryningsljus Album/Performer : Kaipa Part : 1 Part/Total : 1 Track name : Sommargryningsljus (Single Edit) Track name/Position : 9 Track name/Total : 9 Performer : Kaipa Composer : Aleena Gibson / Hans Lundin Producer : InsideOutMusic Label : InsideOutMusic Genre : Rock Recorded date : 2024-06-28 ISRC : SEWRU2400109 Copyright : (P) 2024 InsideOutMusic under license from Kaipa Cover : Yes Cover type : Cover (front) Cover MIME : image/jpeg PRODUCER : Hans Lundin INVOLVEDPEOPLE : Aleena Gibson, Composer - Hans Lundin, Composer, Lyricist, Producer, Mixing Engineer - Kaipa, MainArtist, AssociatedPerformer - Martin Igelstrom, Mastering Engineer, Mixing Engineer UPC : 0196871784450 MEDIATYPE : album ITUNESADVISORY : 0 URL : https://www.qobuz.com/fr-fr/album/sommargryningsljus-kaipa/pcwmgnlfz7cuc Audio Format : FLAC Format/Info : Free Lossless Audio Codec Duration : 5 min 22 s Bit rate mode : Variable Bit rate : 1 548 kb/s Channel(s) : 2 channels Channel layout : L R Sampling rate : 44.1 kHz Bit depth : 24 bits Compression mode : Lossless Stream size : 59.5 MiB (100%) General Complete name : C:Deemix MusicKaipaSommargryningsljusFLAC (24bit-44.1kHz)Cover.jpg Format : JPEG File size : 311 KiB Image Format : JPEG Width : 1 417 pixels Height : 1 417 pixels Color space : YUV Chroma subsampling : 4:4:4 Bit depth : 8 bits Compression mode : Lossy Stream size : 311 KiB (100%)

Всего файлов в раздаче: 10 
01 Sommarskymningsljus.flac16.38 MB
02 Seven Birds.flac116.94 MB
03 Like Thousand Dawns.flac136.10 MB
04 Revelationview.flac116.74 MB
05 Chased by Wolves and Burned by the Sun.flac125.48 MB
06 Spiderweb Train.flac186.63 MB
07 Songs in Our Hands.flac157.40 MB
08 Sommargryningsljus.flac44.33 MB
09 Sommargryningsljus (Single Edit).flac59.90 MB
folder.jpg327.33 kB

Комментарии


Зарегистрируйтесь чтобы добавить комментарий
Торрент клиент
byTorrent - программа для загрузки торрент-файлов.

Скачать byTorrent.exe (1,5 МБ)

Скачать byTorrent.zip (0,6 МБ)

Поддержи torrent.by
российских рублей
(300 российских рублей это 4$)

Обратная связь rss

End game ©