↑↓torrent.by
Поиск
Логин:  Регистрация
Пароль:

Парни побоку / Boys on the Side (1995) BDRip 720p от ExKinoRay | P, A

download Скачать торрент-файл   magnet Магнитная ссылка Размер: 4.75 GB Добавлен: 2024-07-03 11:00
Пиры будут получены из сети DHT
Последний сидер был замечен 2024-07-03 11:00
Информация о фильме Название: Парни побоку Оригинальное название: Boys on the Side Год выхода: 1995 Жанр: Драма, комедия Режиссер: Херберт Росс В ролях: Вупи Голдберг, Мэри-Луиз Паркер, Дрю Бэрримор, Мэттью МакКонахи, Джеймс Римар, Билли Уэрт, Анита Джиллет, Дэннис Буцикарис, Эстелл Парсонс, Эми Акино О фильме: В картине три женщины, у каждой из которых есть серьезная проблема, по воле случая путешествуют вместе. Одна из них – Робин – недавно узнала о том, что ВИЧ-положительна. Фильм показывает историю человеческих взаимоотношений, любви и дружбы, а также физические и психологические сложности, с которыми приходится сталкиваться смертельно больному человеку. Страна: США, Франция Студия: Alcor Films, Canal+, Hera Productions, Regency Television Продолжительность: 01:52:02 Перевод: Профессиональный многоголосый, авторский одноголосый Качество: ВDRip 720p (Boys.on.the.Side.1995.Blu-Ray.Remux.1080i) Формат: mkv Видео: MPEG-4 AVC, 4920 Кбит/с, 1280х534, 25 Кадр/с Aудио#1: Russian: 48 kHz, AC3, 2 (L,R) ch, ~192.00 kbps avg | Профессиональный многоголосый, ОРТ | Aудио#2: Russian: 48 kHz, AC3, 2 (L,R) ch, ~192.00 kbps avg | Авторский одноголосый, А. Гаврилов | Aудио#3: Russian: 48 kHz, AC3, 2 (L,R) ch, ~192.00 kbps avg | Авторский одноголосый, С. Визгунов | Aудио#4: Russian: 48 kHz, AC3, 2 (L,R) ch, ~192.00 kbps avg | Авторский одноголосый, В. Горчаков | Aудио#5: English: 48 kHz, AC3, 3/2 (L,C,R,l,r) + LFE ch, ~384.00 kbps avg Субтитры: Russian (Full-length), English (Full-length, SDH)
[+] Скриншоты
[+] MediaInfo Формат : Matroska Версия формата : Version 4 Размер файла : 4,75 Гбайт Продолжительность : 1 ч. 52 мин. Общий битрейт : 6 069 Кбит/сек Частота кадров : 25,000 кадров/сек Название фильма : Boys.on.the.Side.1995.x264.BDRip.720p.Rus.Eng.ExKinoRay Дата кодирования : 2024-07-02 08:17:50 UTC Программа кодирования : mkvmerge v7.9.0 ('Birds') 64bit Библиотека кодирования : libebml v1.3.1 + libmatroska v1.4.2 Видео Идентификатор : 1 Формат : AVC Формат/Информация : Advanced Video Codec Профиль формата : High@L4.1 Настройки формата : CABAC / 12 Ref Frames Параметр CABAC формата : Да Параметр RefFrames формата : 12 кадров Идентификатор кодека : V_MPEG4/ISO/AVC Продолжительность : 1 ч. 52 мин. Битрейт : 4 920 Кбит/сек Ширина : 1 280 пикселей Высота : 534 пикселя Соотношение сторон дисплея : 2,40:1 Режим частоты кадров : Постоянный Частота кадров : 25,000 кадров/сек Цветовое пространство : YUV Цветовая субдискретизация : 4:2:0 Битовая глубина : 8 бит Тип развёртки : Прогрессивная Бит/(Пиксели*Кадры) : 0.288 Размер потока : 3,85 Гбайт (81%) Заголовок : Boys.on.the.Side.1995.x264.BDRip.720p.Rus.Eng.ExKinoRay Библиотека кодирования : x264 core 164 r3191 4613ac3 Параметры библиотеки кодирования : cabac=1 / ref=12 / deblock=1:-3:-3 / analyse=0x3:0x113 / me=umh / subme=11 / psy=1 / psy_rd=1.10:0.00 / mixed_ref=1 / me_range=32 / chroma_me=1 / trellis=2 / 8x8dct=1 / cqm=0 / deadzone=21,11 / fast_pskip=0 / chroma_qp_offset=-2 / threads=17 / lookahead_threads=4 / sliced_threads=0 / nr=0 / decimate=0 / interlaced=0 / bluray_compat=0 / constrained_intra=0 / bframes=10 / b_pyramid=2 / b_adapt=2 / b_bias=0 / direct=3 / weightb=1 / open_gop=0 / weightp=2 / keyint=250 / keyint_min=25 / scenecut=40 / intra_refresh=0 / rc_lookahead=100 / rc=2pass / mbtree=0 / bitrate=4920 / ratetol=1.0 / qcomp=0.60 / qpmin=0 / qpmax=69 / qpstep=4 / cplxblur=20.0 / qblur=0.5 / vbv_maxrate=62500 / vbv_bufsize=78125 / nal_hrd=none / filler=0 / ip_ratio=1.40 / pb_ratio=1.30 / aq=3:0.80 Язык : Английский По умолчанию : Да Принудительно : Нет Аудио #1 Идентификатор : 2 Формат : AC-3 Формат/Информация : Audio Coding 3 Коммерческое название : Dolby Digital Идентификатор кодека : A_AC3 Продолжительность : 1 ч. 52 мин. Вид битрейта : Постоянный Битрейт : 192 Кбит/сек Канал(-ы) : 2 канала Расположение каналов : L R Частота дискретизации : 48,0 КГц Частота кадров : 31,250 кадров/сек (1536 SPF) Метод сжатия : С потерями Размер потока : 154 Мбайт (3%) Заголовок : Профессиональный многоголосый (ОРТ) Язык : Русский Вид сервиса : Complete Main По умолчанию : Да Принудительно : Нет Нормализация звука речи : -31 dB dialnorm_Average : -31 dB dialnorm_Minimum : -31 dB dialnorm_Maximum : -31 dB Аудио #2 Идентификатор : 3 Формат : AC-3 Формат/Информация : Audio Coding 3 Коммерческое название : Dolby Digital Идентификатор кодека : A_AC3 Продолжительность : 1 ч. 52 мин. Вид битрейта : Постоянный Битрейт : 192 Кбит/сек Канал(-ы) : 2 канала Расположение каналов : L R Частота дискретизации : 48,0 КГц Частота кадров : 31,250 кадров/сек (1536 SPF) Метод сжатия : С потерями Размер потока : 154 Мбайт (3%) Заголовок : Авторский одноголосый (Андрей Гаврилов) Язык : Русский Вид сервиса : Complete Main По умолчанию : Нет Принудительно : Нет Нормализация звука речи : -31 dB dialnorm_Average : -31 dB dialnorm_Minimum : -31 dB dialnorm_Maximum : -31 dB Аудио #3 Идентификатор : 4 Формат : AC-3 Формат/Информация : Audio Coding 3 Коммерческое название : Dolby Digital Идентификатор кодека : A_AC3 Продолжительность : 1 ч. 52 мин. Вид битрейта : Постоянный Битрейт : 192 Кбит/сек Канал(-ы) : 2 канала Расположение каналов : L R Частота дискретизации : 48,0 КГц Частота кадров : 31,250 кадров/сек (1536 SPF) Метод сжатия : С потерями Размер потока : 154 Мбайт (3%) Заголовок : Авторский одноголосый (Сергей Визгунов) Язык : Русский Вид сервиса : Complete Main По умолчанию : Нет Принудительно : Нет Нормализация звука речи : -31 dB dialnorm_Average : -31 dB dialnorm_Minimum : -31 dB dialnorm_Maximum : -31 dB Аудио #4 Идентификатор : 5 Формат : AC-3 Формат/Информация : Audio Coding 3 Коммерческое название : Dolby Digital Идентификатор кодека : A_AC3 Продолжительность : 1 ч. 52 мин. Вид битрейта : Постоянный Битрейт : 192 Кбит/сек Канал(-ы) : 2 канала Расположение каналов : L R Частота дискретизации : 48,0 КГц Частота кадров : 31,250 кадров/сек (1536 SPF) Метод сжатия : С потерями Размер потока : 154 Мбайт (3%) Заголовок : Авторский одноголосый (Василий Горчаков) Язык : Русский Вид сервиса : Complete Main По умолчанию : Нет Принудительно : Нет Нормализация звука речи : -31 dB dialnorm_Average : -31 dB dialnorm_Minimum : -31 dB dialnorm_Maximum : -31 dB Аудио #5 Идентификатор : 6 Формат : AC-3 Формат/Информация : Audio Coding 3 Коммерческое название : Dolby Digital Идентификатор кодека : A_AC3 Продолжительность : 1 ч. 52 мин. Вид битрейта : Постоянный Битрейт : 384 Кбит/сек Канал(-ы) : 6 каналов Расположение каналов : L R C LFE Ls Rs Частота дискретизации : 48,0 КГц Частота кадров : 31,250 кадров/сек (1536 SPF) Метод сжатия : С потерями Размер потока : 308 Мбайт (6%) Заголовок : DD 5.1 ch 384 Kbps Язык : Английский Вид сервиса : Complete Main По умолчанию : Нет Принудительно : Нет Нормализация звука речи : -31 dB cmixlev : -3.0 dB surmixlev : -3 dB dialnorm_Average : -31 dB dialnorm_Minimum : -31 dB dialnorm_Maximum : -31 dB Текст #1 Идентификатор : 7 Формат : UTF-8 Идентификатор кодека : S_TEXT/UTF8 Идентификатор кодека/Информация : UTF-8 Plain Text Продолжительность : 1 ч. 43 мин. Битрейт : 93 бит/сек Частота кадров : 0,226 кадр/сек Число элементов : 1408 Размер потока : 71,5 КиБ (0%) Заголовок : Full-length Язык : Русский По умолчанию : Нет Принудительно : Нет Текст #2 Идентификатор : 8 Формат : UTF-8 Идентификатор кодека : S_TEXT/UTF8 Идентификатор кодека/Информация : UTF-8 Plain Text Продолжительность : 1 ч. 51 мин. Битрейт : 65 бит/сек Частота кадров : 0,343 кадр/сек Число элементов : 2292 Размер потока : 53,7 КиБ (0%) Заголовок : Full-length Язык : Английский По умолчанию : Нет Принудительно : Нет Текст #3 Идентификатор : 9 Формат : UTF-8 Идентификатор кодека : S_TEXT/UTF8 Идентификатор кодека/Информация : UTF-8 Plain Text Продолжительность : 1 ч. 51 мин. Битрейт : 67 бит/сек Частота кадров : 0,351 кадр/сек Число элементов : 2344 Размер потока : 54,7 КиБ (0%) Заголовок : SDH Язык : Английский По умолчанию : Нет Принудительно : Нет Меню 00:00:00.000 : en:Chapter 1 00:08:15.640 : en:Chapter 2 00:24:01.280 : en:Chapter 3 00:41:42.600 : en:Chapter 4 00:56:20.720 : en:Chapter 5 01:09:55.880 : en:Chapter 6 01:23:12.640 : en:Chapter 7 01:33:14.040 : en:Chapter 8 01:45:15.680 : en:Chapter 9

Всего файлов в раздаче: 1 
Boys.on.the.Side.1995.x264.BDRip.720p.Rus.Eng.ExKinoRay.mkv4.75 GB

Похожие раздачи по запросу - Парни
2024-07-23 magnet Плохие парни до конца / Bad Boys: Ride or Die (2024) UHD WEB-DL-HEVC 2160p | 4K | SDR | D | MovieDalen 10.08 GB ↑ 1 ↓ 51
2024-07-23 magnet Плохие парни до конца / Bad Boys: Ride or Die (2024) UHD WEB-DL 2160p | 4K | Dolby Vision TV | D | MovieDalen 20.90 GB ↑ 1 ↓ 25
2024-07-23 magnet Плохие парни 2 / Bad Boys II (2003) WEB-DLRip-AVC от DoMiNo | D | Невафильм | Open Matte 2.90 GB ↑ 0 ↓ 2
2024-07-23 magnet Плохие парни до конца / Bad Boys: Ride or Die (2024) WEB-DLRip от New-Team | D 1.47 GB ↑ 1 ↓ 1
2024-07-23 magnet Плохие парни до конца / Bad Boys: Ride or Die (2024) WEB-DLRip от DoMiNo & селезень | D | MovieDalen 1.46 GB ↑ 2 ↓ 5
2024-07-23 magnet Плохие парни до конца / Bad Boys: Ride or Die (2024) WEB-DLRip 720p от DoMiNo & селезень | D | MovieDalen 3.73 GB ↑ 1 ↓ 5
2024-07-23 magnet Плохие парни до конца / Bad Boys: Ride or Die (2024) UHD WEB-DL 2160p от селезень | 4K | HDR10 | HDR10+ | Dolby Vision | D 20.39 GB ↑ 2 ↓ 45

Комментарии


Зарегистрируйтесь чтобы добавить комментарий
Торрент клиент
byTorrent - программа для загрузки торрент-файлов.

Скачать byTorrent.exe (1,5 МБ)

Скачать byTorrent.zip (0,6 МБ)

Поддержи torrent.by
российских рублей
(300 российских рублей это 4$)

Обратная связь rss

End game ©