↑↓torrent.by
Поиск
Логин:  Регистрация
Пароль:

Кинг Конг / King Kong (2005) BDRip 720p от New-Team | D, P, P2, A | Расширенная версия

download Скачать торрент-файл   magnet Магнитная ссылка Размер: 7.95 GB Добавлен: 2024-07-03 11:00
Пиры будут получены из сети DHT
Последний сидер был замечен 2024-07-03 23:29
«Восьмое чудо света» Страна: Новая Зеландия, США, Германия Производство: Big Primate Pictures, MFPV Film, Universal Pictures, WingNut Films Жанр: боевик, драма, мелодрама, приключения, фэнтези Год выпуска: 2005 Продолжительность: 03:20:07 Перевод: Профессиональный (полное дублирование), Профессиональный (многоголосый закадровый) (Киномания), Профессиональный (двухголосый закадровый) П. Гланц и И. Королева, Авторский (одноголосый закадровый) А. Гаврилов, В. Королев Оригинальная аудиодорожка: английский Cубтитры: русский Режиссер: Питер Джексон / Peter Jackson В ролях: Наоми Уоттс, Джек Блэк, Эдриан Броуди, Томас Кречманн, Колин Хэнкс, Энди Серкис, Ивэн Декстер Парк, Джэми Белл, Лобо Чан, Джон Саммер, Крэйг Холл, Кайл Чандлер, Билл Джонсон, Марк Хэдлоу, Джеральдин Брофи, Дэвид Дэнис, Дэвид Питту, Пип Мушин, Джим Нобелок, Рик Херберт, Ли Донахью... Полный список актёров Роли дублировали: Жанна Никонова, Игорь Тарадайкин, Алексей Колган, Андрей Градов, Борис Быстров... Описание: В 1930-м году съемочная группа под предводительством режиссера-неудачника Карла Дэнхэма отправляется на загадочный Остров Черепа неподалеку от Суматры, чтобы изучать легенды о гигантской горилле по кличке Конг. По прибытии на место они обнаруживают, что Кинг Конг и правда существует. Горилла живет в самой чаще непроходимых джунглей, где помимо него, спрятанные от всего мира, обитают многие создания из доисторических времен. Исследователи оказываются между двух огней — с одной стороны Кинг Конг, а с другой — его враги динозавры… Исходник: BDRemux 1080p Тип релиза: BDRip 720p Контейнер: MKV Видео: 1280x544 (2.35:1), 23,976 кадра/сек, x264 core 138 r2356 ~ 2995 кбит/се, 0.179 бит/пиксель Аудио: 48 кГц, Dolby Digital AC3 5.1, 448 кбит/сек DUB Аудио: 48 кГц, Dolby Digital AC3 5.1, 448 кбит/сек MVO Киномания Аудио: 48 кГц, Dolby Digital AC3 5.1, 448 кбит/сек DVO П. Гланц и И. Королева Аудио: 48 кГц, Dolby Digital AC3 5.1, 448 кбит/сек AVO А. Гаврилов Аудио: 48 кГц, Dolby Digital AC3 5.1, 448 кбит/сек AVO В. Королев Аудио: 48 кГц, Dolby Digital AC3 5.1, 448 кбит/сек Английский Оригинальная навигация по главам: есть Субтитры: SoftSub (srt) Раздача от:
[+] MediaInfo Общее Полное имя : King.Kong.2005.BDRip720p__by_AVP_Studio.mkv Формат : Matroska Версия формата : Version 4 / Version 2 Размер файла : 7,95 Гбайт Продолжительность : 3 ч. 20 м. Общий поток : 5686 Кбит/сек Название фильма : King.Kong.2005.BDRip720p__by_AVP_Studio Дата кодирования : UTC 2014-10-17 08:13:02 Программа кодирования : mkvmerge v7.2.0 ('On Every Street') 64bit built on Sep 13 2014 15:52:10 Библиотека кодирования : libebml v1.3.0 + libmatroska v1.4.1 DURATION : 03:08:06.699000000 NUMBER_OF_FRAMES : 1236 NUMBER_OF_BYTES : 62061 _STATISTICS_WRITING_APP : mkvmerge v7.2.0 ('On Every Street') 64bit built on Sep 13 2014 15:52:10 _STATISTICS_WRITING_DATE_UTC : 2014-10-17 08:13:02 _STATISTICS_TAGS : BPS DURATION NUMBER_OF_FRAMES NUMBER_OF_BYTES Видео Идентификатор : 1 Формат : AVC Формат/Информация : Advanced Video Codec Профиль формата : High@L4.1 Параметр CABAC формата : Да Параметр ReFrames формата : 6 кадров Идентификатор кодека : V_MPEG4/ISO/AVC Продолжительность : 3 ч. 20 м. Битрейт : 2995 Кбит/сек Ширина : 1280 пикселей Высота : 544 пикселя Соотношение сторон : 2,35:1 Режим частоты кадров : Постоянный Частота кадров : 23,976 кадра/сек Цветовое пространство : YUV Субдискретизация насыщенности : 4:2:0 Битовая глубина : 8 бит Тип развёртки : Прогрессивная Бит/(Пиксели*Кадры) : 0.179 Размер потока : 4,03 Гбайт (51%) Заголовок : Источник BDRemux Библиотека кодирования : x264 core 138 r2356 a1d3d17 Настройки программы : cabac=1 / ref=6 / deblock=1:-3:-3 / analyse=0x3:0x113 / me=umh / subme=10 / psy=1 / psy_rd=1.00:0.05 / mixed_ref=1 / me_range=32 / chroma_me=1 / trellis=2 / 8x8dct=1 / cqm=0 / deadzone=21,11 / fast_pskip=0 / chroma_qp_offset=-3 / threads=6 / lookahead_threads=1 / sliced_threads=0 / nr=0 / decimate=0 / interlaced=0 / bluray_compat=0 / constrained_intra=0 / bframes=8 / b_pyramid=2 / b_adapt=2 / b_bias=0 / direct=3 / weightb=1 / open_gop=0 / weightp=2 / keyint=240 / keyint_min=24 / scenecut=40 / intra_refresh=0 / rc_lookahead=40 / rc=2pass / mbtree=1 / bitrate=2995 / ratetol=1.0 / qcomp=0.60 / qpmin=10 / qpmax=51 / qpstep=4 / cplxblur=20.0 / qblur=0.5 / vbv_maxrate=50000 / vbv_bufsize=50000 / nal_hrd=none / ip_ratio=1.40 / aq=1:0.80 Язык : English Default : Да Forced : Нет Аудио #1 Идентификатор : 2 Формат : AC-3 Формат/Информация : Audio Coding 3 Расширение режима : CM (complete main) Параметр Endianness формата : Big Идентификатор кодека : A_AC3 Продолжительность : 3 ч. 20 м. Вид битрейта : Постоянный Битрейт : 448 Кбит/сек Каналы : 6 каналов Расположение каналов : Front: L C R, Side: L R, LFE Частота : 48,0 КГц Битовая глубина : 16 бит Метод сжатия : С потерями Размер потока : 641 Мбайт (8%) Заголовок : Источник BDRemux DUB Язык : Russian Default : Да Forced : Нет Аудио #2 Идентификатор : 3 Формат : AC-3 Формат/Информация : Audio Coding 3 Расширение режима : CM (complete main) Параметр Endianness формата : Big Идентификатор кодека : A_AC3 Продолжительность : 3 ч. 20 м. Вид битрейта : Постоянный Битрейт : 448 Кбит/сек Каналы : 6 каналов Расположение каналов : Front: L C R, Side: L R, LFE Частота : 48,0 КГц Битовая глубина : 16 бит Метод сжатия : С потерями Размер потока : 641 Мбайт (8%) Заголовок : Источник BDRemux MVO Киномания Язык : Russian Default : Нет Forced : Нет Аудио #3 Идентификатор : 4 Формат : AC-3 Формат/Информация : Audio Coding 3 Расширение режима : CM (complete main) Параметр Endianness формата : Big Идентификатор кодека : A_AC3 Продолжительность : 3 ч. 20 м. Вид битрейта : Постоянный Битрейт : 448 Кбит/сек Каналы : 6 каналов Расположение каналов : Front: L C R, Side: L R, LFE Частота : 48,0 КГц Битовая глубина : 16 бит Метод сжатия : С потерями Размер потока : 641 Мбайт (8%) Заголовок : Источник BDRemux DVO П. Гланц и И. Королева Язык : Russian Default : Нет Forced : Нет Аудио #4 Идентификатор : 5 Формат : AC-3 Формат/Информация : Audio Coding 3 Расширение режима : CM (complete main) Параметр Endianness формата : Big Идентификатор кодека : A_AC3 Продолжительность : 3 ч. 20 м. Вид битрейта : Постоянный Битрейт : 448 Кбит/сек Каналы : 6 каналов Расположение каналов : Front: L C R, Side: L R, LFE Частота : 48,0 КГц Битовая глубина : 16 бит Метод сжатия : С потерями Размер потока : 641 Мбайт (8%) Заголовок : Источник BDRemux AVO А. Гаврилов Язык : Russian Default : Нет Forced : Нет Аудио #5 Идентификатор : 6 Формат : AC-3 Формат/Информация : Audio Coding 3 Расширение режима : CM (complete main) Параметр Endianness формата : Big Идентификатор кодека : A_AC3 Продолжительность : 3 ч. 20 м. Вид битрейта : Постоянный Битрейт : 448 Кбит/сек Каналы : 6 каналов Расположение каналов : Front: L C R, Side: L R, LFE Частота : 48,0 КГц Битовая глубина : 16 бит Метод сжатия : С потерями Размер потока : 641 Мбайт (8%) Заголовок : Источник BDRemux AVO В. Королев Язык : Russian Default : Нет Forced : Нет Аудио #6 Идентификатор : 7 Формат : AC-3 Формат/Информация : Audio Coding 3 Расширение режима : CM (complete main) Параметр Endianness формата : Big Идентификатор кодека : A_AC3 Продолжительность : 3 ч. 20 м. Вид битрейта : Постоянный Битрейт : 448 Кбит/сек Каналы : 6 каналов Расположение каналов : Front: L C R, Side: L R, LFE Частота : 48,0 КГц Битовая глубина : 16 бит Метод сжатия : С потерями Размер потока : 641 Мбайт (8%) Заголовок : Источник BDRemux Язык : English Default : Нет Forced : Нет Текст Идентификатор : 8 Формат : UTF-8 Идентификатор кодека : S_TEXT/UTF8 Идентификатор кодека/Информация : UTF-8 Plain Text Заголовок : Источник BDRemux SoftSub (srt) Язык : Russian Default : Нет Forced : Нет Меню 00:00:00.000 : ru:Эпизод 01 00:07:54.515 : ru:Эпизод 02 00:11:52.503 : ru:Эпизод 03 00:17:18.370 : ru:Эпизод 04 00:20:43.241 : ru:Эпизод 05 00:26:11.152 : ru:Эпизод 06 00:31:17.458 : ru:Эпизод 07 00:36:52.793 : ru:Эпизод 08 00:42:52.027 : ru:Эпизод 09 00:48:48.091 : ru:Эпизод 10 00:51:07.022 : ru:Эпизод 11 00:55:34.080 : ru:Эпизод 12 01:02:23.114 : ru:Эпизод 13 01:06:26.023 : ru:Эпизод 14 01:12:18.333 : ru:Эпизод 15 01:19:45.864 : ru:Эпизод 16 01:24:45.914 : ru:Эпизод 17 01:25:19.322 : ru:Эпизод 18 01:32:12.818 : ru:Эпизод 19 01:35:21.507 : ru:Эпизод 20 01:41:19.740 : ru:Эпизод 21 01:45:56.391 : ru:Эпизод 22 01:54:21.145 : ru:Эпизод 23 01:56:07.877 : ru:Эпизод 24 02:00:38.981 : ru:Эпизод 25 02:09:50.824 : ru:Эпизод 26 02:13:28.875 : ru:Эпизод 27 02:15:10.685 : ru:Эпизод 28 02:23:46.034 : ru:Эпизод 29 02:25:10.284 : ru:Эпизод 30 02:30:35.609 : ru:Эпизод 31 02:35:12.386 : ru:Эпизод 32 02:44:58.722 : ru:Эпизод 33 02:45:08.148 : ru:Эпизод 34 02:53:48.125 : ru:Эпизод 35 02:55:39.320 : ru:Эпизод 36 03:02:25.726 : ru:Эпизод 37 03:08:07.109 : ru:Эпизод 38 03:14:15.477 : ru:Эпизод 39 03:17:36.010 : ru:Эпизод 40
[+] Скриншоты

Всего файлов в раздаче: 1 
King.Kong.2005.BDRip720p_[New-team]_by_AVP_Studio.mkv7.95 GB

Похожие раздачи по запросу - Кинг
2024-06-13 magnet Стивен Кинг - Противостояние (2020) MP3 1.52 GB ↑ 0 ↓ 0
2023-06-29 magnet Патрик Кинг - Негласные правила общения и этикета. Как вызвать симпатию в любой социальной ситуации (2023) PDF 1.74 MB ↑ 0 ↓ 0
2022-02-10 magnet Стивен Кинг - Лавка дурных снов (2022) MP3 587.85 MB ↑ 0 ↓ 0
2021-07-06 magnet Стивен Кинг - Собрание сочинений [315 книг + 71 комикс] (1960-2015) FB2 1К2.18 GB ↑ 0 ↓ 0

Комментарии


Зарегистрируйтесь чтобы добавить комментарий
Торрент клиент
byTorrent - программа для загрузки торрент-файлов.

Скачать byTorrent.exe (1,5 МБ)

Скачать byTorrent.zip (0,6 МБ)

Поддержи torrent.by
российских рублей
(300 российских рублей это 4$)

Обратная связь rss

End game ©