↑↓torrent.by
Поиск
Логин:  Регистрация
Пароль:

Тёмная материя / Dark Matter [S01] (2024) WEB-DLRip-AVC | КПК | Jaskier

download Скачать торрент-файл   magnet Магнитная ссылка Размер: 2.21 GB Добавлен: 2024-07-03 11:00
Пиры будут получены из сети DHT
Последний сидер был замечен 2024-07-10 11:26
Информация о фильме Название: Тёмная материя Оригинальное название: Dark Matter Год выхода: 2024 Жанр: фантастика, триллер, драма Режиссер: Якоб Вербрюгген, Роксанн Доусон, Логан Джордж В ролях: Джоэл Эдгертон, Дженнифер Коннелли, Оакс Фигли, Алиси Брага, Джимми Симпсон, Дайо Окенийи, Аманда Бругел, Tiff Abreu, Bassam Abdelfattah, Джимми Стикс и другие. О фильме: Физик Джейсон Дессен из Чикаго оказывается в альтернативной версии свой жизни. Чтобы вернуться к своей семье, он должен будет пройти через ряд параллельных реальностей и столкнуться с альтернативной версией самого себя. Страна: США Студия: Matt Tolmach Productionsб Sony Pictures Television Продолжительность: 9 x ~ 00:50:00 Перевод: Профессиональный (многоголосый, закадровый) | Jaskier Примечание: в переводе присутствует ненормативная лексика! Файл Формат: MPEG-4 Base Media Качество: WEB-DLRip 360p (исх. WEB-DL 720p | RGzs) * Видео: AVC, 640x320 (2.000) at 23.976 fps, 547-652 kbps Аудио: AAC LC SBR (HE-AAC), 48.0 kHz, 2 ch, 64 kbps Субтитры: Russian (Forced, Full), English (SDH) * за исходник спасибо kogesan
[+] MediaInfoGeneral Complete name : Dark.Matter.Mini-Series/Dark.Matter.S01E01.Jas.WEB-DLRip.mp4 Format : MPEG-4 Format profile : Base Media Codec ID : isom (isom) File size : 238 MiB Duration : 46 min 15 s Overall bit rate mode : Variable Overall bit rate : 719 kb/s Encoded date : UTC 2024-07-01 13:10:44 Tagged date : UTC 2024-07-01 13:10:44 Video ID : 1 Format : AVC Format/Info : Advanced Video Codec Format profile : High@L3.2 Format settings : CABAC / 12 Ref Frames Format settings, CABAC : Yes Format settings, RefFrames : 12 frames Codec ID : avc1 Codec ID/Info : Advanced Video Coding Duration : 46 min 15 s Bit rate : 652 kb/s Maximum bit rate : 2 865 kb/s Width : 640 pixels Height : 320 pixels Display aspect ratio : 2.000 Frame rate mode : Constant Frame rate : 23.976 (24000/1001) FPS Color space : YUV Chroma subsampling : 4:2:0 Bit depth : 8 bits Scan type : Progressive Bits/(Pixel*Frame) : 0.133 Stream size : 216 MiB (91%) Title : Are You Happy in Your Life? Writing library : x264 core 133 r2334 a3ac64b Encoding settings : cabac=1 / ref=12 / deblock=1:0:0 / analyse=0x3:0x133 / me=umh / subme=10 / psy=1 / psy_rd=1.00:0.00 / mixed_ref=1 / me_range=24 / chroma_me=1 / trellis=2 / 8x8dct=1 / cqm=0 / deadzone=21,11 / fast_pskip=0 / chroma_qp_offset=-2 / threads=6 / lookahead_threads=1 / sliced_threads=0 / nr=0 / decimate=1 / interlaced=0 / bluray_compat=0 / constrained_intra=0 / bframes=13 / b_pyramid=2 / b_adapt=2 / b_bias=0 / direct=1 / weightb=1 / open_gop=0 / weightp=2 / keyint=240 / keyint_min=23 / scenecut=40 / intra_refresh=0 / rc=crf / mbtree=0 / crf=18.0 / qcomp=0.60 / qpmin=0 / qpmax=69 / qpstep=4 / ip_ratio=1.45 / pb_ratio=1.25 / aq=1:1.00 Language : English Encoded date : UTC 2024-06-28 23:11:02 Tagged date : UTC 2024-07-01 13:10:59 Color range : Limited Color primaries : BT.709 Transfer characteristics : BT.709 Matrix coefficients : BT.709 Codec configuration box : avcC Audio ID : 2 Format : AAC LC SBR Format/Info : Advanced Audio Codec Low Complexity with Spectral Band Replication Commercial name : HE-AAC Format settings : Explicit Codec ID : mp4a-40-2 Duration : 46 min 15 s Bit rate mode : Variable Bit rate : 64.0 kb/s Maximum bit rate : 139 kb/s Channel(s) : 2 channels Channel layout : L R Sampling rate : 48.0 kHz Frame rate : 23.438 FPS (2048 SPF) Compression mode : Lossy Stream size : 21.2 MiB (9%) Title : MVO - Jaskier Language : Russian Encoded date : UTC 2024-07-01 13:10:57 Tagged date : UTC 2024-07-01 13:10:59 Text #1 ID : 3 Format : Timed Text Codec ID : tx3g Duration : 42 min 45 s Bit rate mode : Variable Bit rate : 3 b/s Stream size : 1.02 KiB (0%) Title : Forced Language : Russian Forced : No Encoded date : UTC 2024-07-01 13:10:58 Tagged date : UTC 2024-07-01 13:10:59 Text #2 ID : 4 Format : Timed Text Codec ID : tx3g Duration : 46 min 8 s Bit rate mode : Variable Bit rate : 63 b/s Stream size : 21.4 KiB (0%) Title : Full Language : Russian Forced : No Encoded date : UTC 2024-07-01 13:10:58 Tagged date : UTC 2024-07-01 13:10:59 Text #3 ID : 5 Format : Timed Text Codec ID : tx3g Duration : 45 min 11 s Bit rate mode : Variable Bit rate : 57 b/s Stream size : 18.7 KiB (0%) Title : SDH Language : English Forced : No Encoded date : UTC 2024-07-01 13:10:59 Tagged date : UTC 2024-07-01 13:10:59
[+] Скриншоты

Всего файлов в раздаче: 9 
Dark.Matter.S01E01.Jas.WEB-DLRip.mp4238.07 MB
Dark.Matter.S01E02.Jas.WEB-DLRip.mp4234.92 MB
Dark.Matter.S01E03.Jas.WEB-DLRip.mp4224.82 MB
Dark.Matter.S01E04.Jas.WEB-DLRip.mp4296.68 MB
Dark.Matter.S01E05.Jas.WEB-DLRip.mp4255.26 MB
Dark.Matter.S01E06.Jas.WEB-DLRip.mp4255.68 MB
Dark.Matter.S01E07.Jas.WEB-DLRip.mp4243.45 MB
Dark.Matter.S01E08.Jas.WEB-DLRip.mp4227.17 MB
Dark.Matter.S01E09.Jas.WEB-DLRip.mp4288.80 MB

Похожие раздачи по запросу - Тёмная
2024-07-05 magnet Тёмная материя / Dark Matter [S01] (2024) WEB-DL 720p | P 27.41 GB ↑ 0 ↓ 7
2024-07-03 magnet Темная половина / The Dark Half (1993) HDTV 1080i от HDClub 7.71 GB ↑ 0 ↓ 0
2024-07-03 magnet Темная половина / The Dark Half (1993) BDRip от HQCLUB 2.67 GB ↑ 0 ↓ 0
2024-07-02 magnet Тёмная материя / Dark Matter [S01] (2024) UHD WEB-DL 2160p | 4K | HDR | Dolby Vision Profile 8 | P 98.97 GB ↑ 1 ↓ 0
2024-07-02 magnet Тёмная материя / Dark Matter [S01] (2024) WEB-DL 720p | P 27.09 GB ↑ 0 ↓ 0
2024-07-02 magnet Тёмная материя / Dark Matter [S01] (2024) WEB-DL 1080p | HDrezka Studio, LostFilm, NewComers, TVShows, Red Head Sound 42.65 GB ↑ 0 ↓ 5
2024-07-01 magnet Тёмная материя / Dark Matter [S01] (2024) WEB-DLRip | LostFilm 6.66 GB ↑ 0 ↓ 2

Комментарии


Зарегистрируйтесь чтобы добавить комментарий
Торрент клиент
byTorrent - программа для загрузки торрент-файлов.

Скачать byTorrent.exe (1,5 МБ)

Скачать byTorrent.zip (0,6 МБ)

Поддержи torrent.by
российских рублей
(300 российских рублей это 4$)

Обратная связь rss

End game ©