↑↓torrent.by
Поиск
Логин:  Регистрация
Пароль:

Там, на неведомых дорожках... (1982) DVDRip-AVC

download Скачать торрент-файл   magnet Магнитная ссылка Размер: 1.37 GB Добавлен: 2024-07-03 11:00
Пиры будут получены из сети DHT
Последний сидер был замечен 2024-07-11 09:35
Информация о фильме Название: Там, на неведомых дорожках... Год выхода: 1982 Жанр: Фэнтези, семейный Режиссер: Михаил Юзовский В ролях: Роман Монастырский, Татьяна Пельтцер, Леонид Харитонов, Татьяна Аксюта, Александр Кузнецов, Александр Филиппенко, Юрий Чернов, Юрий Медведев, Леонид Каневский, Олег Анофриев О фильме: Школьник Митя, приехав на каникулы в деревню, попадает в волшебную страну, где вместе с героями любимых книжек вступает в борьбу со всеми сказочными злодеями: Кащеем Бессмертным, Соловьем-Разбойником. И даже Лихо Одноглазое удалось одолеть смельчакам! Страна: СССР Студия: Киностудия им. М. Горького, Третье творческое объединение Продолжительность: 01:06:25 Файл Кодек: H.264 Качество: DVDRip-AVC Видео: 700x536 (4:3), 25.000 fps, MPEG-4 AVC, ~2500 Kbps Аудио: 48.0 KHz, AC3, 6 ch, ~448 Kbps Субтитры: Русские
[+] Скриншоты
[+] Инфо файл General Unique ID : 190410019024470243042818991482680690712 (0x8F3FA2BF885EF2DE9C5D56F7ED88C818) Complete name : C:Там, на неведомых дорожках....mkv Format : Matroska Format version : Version 4 / Version 2 File size : 1.37 GiB Duration : 1h 6mn Overall bit rate : 2 950 Kbps Encoded date : UTC 2015-05-07 20:27:28 Writing application : mkvmerge v7.7.0 ('Six Voices') 64bit built on Feb 28 2015 23:39:33 Writing library : libebml v1.3.1 + libmatroska v1.4.2 DURATION : 01:03:04.236000000 NUMBER_OF_FRAMES : 756 NUMBER_OF_BYTES : 38638 _STATISTICS_WRITING_APP : mkvmerge v7.7.0 ('Six Voices') 64bit built on Feb 28 2015 23:39:33 _STATISTICS_WRITING_DATE_UT : 2015-05-07 20:27:28 _STATISTICS_TAGS : BPS DURATION NUMBER_OF_FRAMES NUMBER_OF_BYTES Video ID : 1 Format : AVC Format/Info : Advanced Video Codec Format profile : High@L3.1 Format settings, CABAC : Yes Format settings, ReFrames : 10 frames Codec ID : V_MPEG4/ISO/AVC Duration : 1h 6mn Bit rate : 2 500 Kbps Width : 700 pixels Height : 536 pixels Display aspect ratio : 4:3 Frame rate mode : Constant Frame rate : 25.000 fps Color space : YUV Chroma subsampling : 4:2:0 Bit depth : 8 bits Scan type : Progressive Bits/(Pixel*Frame) : 0.267 Stream size : 1.13 GiB (83%) Writing library : x264 core 146 r2538 121396c Encoding settings : cabac=1 / ref=10 / deblock=1:-1:-1 / analyse=0x3:0x133 / me=umh / subme=10 / psy=1 / psy_rd=1.00:0.10 / mixed_ref=1 / me_range=32 / chroma_me=1 / trellis=2 / 8x8dct=1 / cqm=0 / deadzone=21,11 / fast_pskip=0 / chroma_qp_offset=-3 / threads=6 / lookahead_threads=1 / sliced_threads=0 / nr=0 / decimate=1 / interlaced=0 / bluray_compat=0 / constrained_intra=0 / bframes=10 / b_pyramid=2 / b_adapt=2 / b_bias=0 / direct=3 / weightb=1 / open_gop=0 / weightp=2 / keyint=250 / keyint_min=25 / scenecut=40 / intra_refresh=0 / rc_lookahead=50 / rc=2pass / mbtree=1 / bitrate=2500 / ratetol=1.0 / qcomp=0.60 / qpmin=0 / qpmax=69 / qpstep=4 / cplxblur=20.0 / qblur=0.5 / ip_ratio=1.40 / aq=1:1.00 Language : Russian Default : Yes Forced : No Audio ID : 2 Format : AC-3 Format/Info : Audio Coding 3 Mode extension : CM (complete main) Format settings, Endianness : Big Codec ID : A_AC3 Duration : 1h 6mn Bit rate mode : Constant Bit rate : 448 Kbps Channel(s) : 6 channels Channel positions : Front: L C R, Side: L R, LFE Sampling rate : 48.0 KHz Bit depth : 16 bits Compression mode : Lossy Stream size : 213 MiB (15%) Language : Russian Default : Yes Forced : No Text ID : 3 Format : UTF-8 Codec ID : S_TEXT/UTF8 Codec ID/Info : UTF-8 Plain Text Language : Russian Default : No Forced : No Menu 00:00:00.000 : :Chapter 01 00:08:13.120 : :Chapter 02 00:14:54.520 : :Chapter 03 00:19:41.920 : :Chapter 04 00:29:38.320 : :Chapter 05 00:34:17.920 : :Chapter 06 00:37:55.720 : :Chapter 07 00:45:42.520 : :Chapter 08 00:50:51.520 : :Chapter 09 00:56:02.320 : :Chapter 10 01:01:35.920 : :Chapter 11 01:04:09.520 : :Chapter 12

Всего файлов в раздаче: 1 
Там, на неведомых дорожках....mkv1.37 GB

Комментарии


Зарегистрируйтесь чтобы добавить комментарий
Торрент клиент
byTorrent - программа для загрузки торрент-файлов.

Скачать byTorrent.exe (1,5 МБ)

Скачать byTorrent.zip (0,6 МБ)

Поддержи torrent.by
российских рублей
(300 российских рублей это 4$)

Обратная связь rss

End game ©