↑↓torrent.by
Поиск
Логин:  Регистрация
Пароль:

Охотники из рая / The Hunted (2024) WEB-DLRip-AVC от New-Team | D

download Скачать торрент-файл   magnet Магнитная ссылка Размер: 1.65 GB Добавлен: 2024-07-03 11:00
Пиры будут получены из сети DHT
Последний сидер был замечен 2024-07-13 02:35
Охотники из рая / The Hunted Год выпуска: 2024 Выпущено: Бельгия, Франция, Великобритания, Греция / Black Swan Tales, Ekome Жанр: ужасы, триллер Режиссер: Луи Лагайетт / Louis Lagayette В ролях: Лили Банда, Алек Ньюман, Костис Калливретакис, Вассилис Кукалани, Милен Джампаной, Раджендра Баджадж, Дафна Александр, Пигмалион Дадакаридис, Аргирис Гаганис, Марлен Каминский, Аврора Мэрион, Айман Аль Абуд О фильме: Переплывая Средиземное море, группа беженцев попадает в шторм. Пострадавших подбирают богатые европейцы, на своей яхте они привозят их на шикарный остров, дают сухую и чистую одежду, а также предлагают ужин. Однако утром беженцы просыпаются отнюдь не в уютных кроватях, а в поле, где им предстоит сражаться за свои жизни. Богачи устраивают мигрантам подобие «Голодных игр», из которых живыми выйдут только самые сильные. Продолжительность: 01:34:15 Перевод: Профессиональный (полное дублирование) | Официальный Субтитры: Русские (full) Раздача от : Формат: MKV Качество: WEB-DLRip-AVC Видео: MPEG-4 AVC, (16:9), 1024x576, 1927 Кбит/с, 24,000 fps Аудио #1: 48 kHz, AC3 Dolby Digital, 2/0 (L,R) ch, ~ 192 kbps | RUS | Аудио #2: 48 kHz, AC3 Dolby Digital, 3/2 (L,C,R,l,r) + LFE ch, ~ 384 kbps | ENG |
[+] MediaInfoОбщее Уникальный идентификатор : 207245656739316800226076994637733213994 (0x9BEA0FC60E569435D8AC6B12FDFAB72A) Полное имя : D:TorrentsThe.Hunted.2024.WEB-DLRip-AVC_от New-Team.mkv Формат : Matroska Версия формата : Version 4 Размер файла : 1,65 Гбайт Продолжительность : 1 ч. 34 м. Общий поток : 2 504 Кбит/сек Название фильма : The.Hunted.2024.WEB-DLRip-AVC_от New-Team Дата кодирования : UTC 2024-07-03 04:38:21 Программа кодирования : mkvmerge v79.0 ('Funeral Pyres') 64-bit Библиотека кодирования : libebml v1.4.4 + libmatroska v1.7.1 Видео Идентификатор : 1 Формат : AVC Формат/Информация : Advanced Video Codec Профиль формата : High@L4.1 Настройки формата : CABAC / 10 Ref Frames Параметр CABAC формата : Да Параметр RefFrames формата : 10 кадров Идентификатор кодека : V_MPEG4/ISO/AVC Продолжительность : 1 ч. 34 м. Битрейт : 1 927 Кбит/сек Ширина : 1 024 пикселя Высота : 576 пикселей Соотношение сторон : 16:9 Режим частоты кадров : Постоянный Частота кадров : 24,000 кадра/сек Цветовое пространство : YUV Субдискретизация насыщенности : 4:2:0 Битовая глубина : 8 бит Тип развёртки : Прогрессивная Бит/(Пиксели*Кадры) : 0.136 Размер потока : 1,27 Гбайт (77%) Библиотека кодирования : x264 core 164 r3156+57M NewTeam t_mod_New Настройки программы : cabac=1 / ref=10 / deblock=1:-3:-2 / analyse=0x3:0x133 / me=umh / subme=10 / psy=1 / fade_compensate=0.00 / psy_rd=1.03:0.07 / mixed_ref=1 / me_range=32 / chroma_me=1 / trellis=2 / 8x8dct=1 / cqm=0 / deadzone=21,11 / fast_pskip=0 / chroma_qp_offset=-3 / threads=18 / lookahead_threads=4 / sliced_threads=0 / nr=0 / decimate=0 / interlaced=0 / bluray_compat=0 / constrained_intra=0 / fgo=0 / bframes=10 / b_pyramid=2 / b_adapt=2 / b_bias=0 / direct=3 / weightb=1 / open_gop=0 / weightp=2 / keyint=240 / keyint_min=24 / scenecut=40 / intra_refresh=0 / rc_lookahead=60 / rc=2pass / mbtree=0 / bitrate=1927 / ratetol=1.0 / qcomp=0.60 / qpmin=0:0:0 / qpmax=69:69:69 / qpstep=5 / cplxblur=20.0 / qblur=0.5 / vbv_maxrate=50000 / vbv_bufsize=62500 / nal_hrd=none / filler=0 / ip_ratio=1.40 / pb_ratio=1.30 / aq=1:1.00 / aq-sensitivity=10.00 / aq-factor=1.00:1.00:1.00 / aq2=0 / aq3=0 Язык : English Default : Да Forced : Нет Аудио #1 Идентификатор : 2 Формат : AC-3 Формат/Информация : Audio Coding 3 Коммерческое название : Dolby Digital Идентификатор кодека : A_AC3 Продолжительность : 1 ч. 34 м. Вид битрейта : Постоянный Битрейт : 192 Кбит/сек Каналы : 2 канала Channel layout : L R Частота : 48,0 КГц Частота кадров : 31,250 кадров/сек (1536 SPF) Метод сжатия : С потерями Размер потока : 129 Мбайт (8%) Заголовок : DUB - Официальный Язык : Russian Service kind : Complete Main Default : Да Forced : Нет Аудио #2 Идентификатор : 3 Формат : AC-3 Формат/Информация : Audio Coding 3 Коммерческое название : Dolby Digital Идентификатор кодека : A_AC3 Продолжительность : 1 ч. 34 м. Вид битрейта : Постоянный Битрейт : 384 Кбит/сек Каналы : 6 каналов Channel layout : L R C LFE Ls Rs Частота : 48,0 КГц Частота кадров : 31,250 кадров/сек (1536 SPF) Метод сжатия : С потерями Размер потока : 259 Мбайт (15%) Заголовок : Original Язык : English Service kind : Complete Main Default : Нет Forced : Нет Текст Идентификатор : 4 Формат : UTF-8 Идентификатор кодека : S_TEXT/UTF8 Идентификатор кодека/Информация : UTF-8 Plain Text Продолжительность : 1 ч. 29 м. Битрейт : 53 бит/сек Count of elements : 890 Размер потока : 35,0 Кбайт (0%) Заголовок : Язык : Russian Default : Нет Forced : Нет

Всего файлов в раздаче: 1 
The.Hunted.2024.WEB-DLRip-AVC_от New-Team.mkv1.65 GB

Похожие раздачи по запросу - Охотники
2024-07-19 magnet Охотники за привидениями: Леденящий ужас / Мисливці на привидів: Крижана імперія / Ghostbusters: Frozen Empire (2024) BDRemux 1080p | D | UKR 25.33 GB ↑ 0 ↓ 0
2024-07-17 magnet Павел Барчук - Веер Миров 01, Охотники за Попаданцами (2024) МР3 367.77 MB ↑ 0 ↓ 0
2024-07-03 magnet Охотники из рая / The Hunted (2024) WEB-DLRip от MegaPeer | D 1.46 GB ↑ 0 ↓ 0
2024-07-03 magnet Охотники из рая / The Hunted (2024) WEB-DL 1080p | D 3.85 GB ↑ 1 ↓ 0
2024-07-03 magnet Охотники из рая / The Hunted (2024) WEB-DLRip от DoMiNo & селезень | D 1.37 GB ↑ 0 ↓ 0
2024-07-01 magnet Охотники на ведьм / Hansel & Gretel: Witch Hunters (2013) BDRip 1080p HEVC от qusi555 | Лицензия | Theatrical Cut 4.48 GB ↑ 0 ↓ 0
2024-07-01 magnet Охотники на ведьм / Hansel and Gretel: Witch Hunters (2013) BDRip 720p от Leonardo and Scarabey | Лицензия | Расширенная версия 2.66 GB ↑ 0 ↓ 0

Комментарии


Зарегистрируйтесь чтобы добавить комментарий
Торрент клиент
byTorrent - программа для загрузки торрент-файлов.

Скачать byTorrent.exe (1,5 МБ)

Скачать byTorrent.zip (0,6 МБ)

Поддержи torrent.by
российских рублей
(300 российских рублей это 4$)

Обратная связь rss

End game ©