↑↓torrent.by
Поиск
Логин:  Регистрация
Пароль:

Священный танец / Fancy Dance (2023) WEB-DLRip-AVC | P | HDRezka Studio

download Скачать торрент-файл   magnet Магнитная ссылка Размер: 1.61 GB Раздают: 1 Качают: 0 Добавлен: il68k 2024-07-03 11:48
Пиры будут получены из сети DHT
Последний сидер был замечен сегодня в 03:38
Информация о фильме Название: Священный танец Оригинальное название: Fancy Dance Год выхода: 2023 Жанр: драма Режиссер: Эрика Тремблэ В ролях: Лили Гладстоун, Изабель Дерой-Олсон, Блейн Аллен, Майкл Роу, Патрис Фишер, Эрианн Мартин, Кристл Лайтнинг, Тайлер Типтон, Райан Бегей О фильме: После загадочного исчезновения сестры Джекс заботится о ее маленькой дочери Роки. Они живут в резервации, едва сводя концы с концами. Каждую свободную минуту Джекс тратит на поиски пропавшей сестры, а также помогает племяннице подготовиться к грядущему индейскому празднику. Страна: США Студия: AUM Group, Confluential Films, Creative Producing Lab, Directors' Lab, Indigenous Intensive, Significant Productions, The Sundance Screenwriters' Lab Продолжительность: 01:31:35 Перевод: Профессиональный (многоголосый закадровый) | HDRezka Studio Файл Кодек: Н.264 Качество: WEB-DLRip-AVC Видео: MPEG-4 AVC, 1871 Kbps, 1024x554 (1.85:1), 23.976 fps, 0.138 bit/pixel, High@L4.1 Звук 1: 48 kHz, AC3 Dolby Digital, 2/0 (L, R) ch, ~192 kbps | HDRezka Studio Звук 2: 48 kHz, AC3 Dolby Digital, 3/2 (L, C, R, l, r) + LFE ch, ~448 kbps | Английский Субтитры: русские (forced, full), английские (forced, full, SDH), украинские Семпл
[+] Награды Сандэнс, 2023 год Номинации: - Гран-при - драма
[+] Скриншоты
[+] MediaInfo raw : 1024x554p 1:1 @ 24000/1001 fps (cfr) x264 : using SAR=1/1 x264 : using cpu capabilities: MMX2 SSE2Fast SSSE3 SSE4.2 AVX FMA3 BMI2 AVX2 x264 : profile High, level 4.1, 4:2:0, 8-bit x264 : frame I:921 Avg QP:15.99 size: 64839 x264 : frame P:30666 Avg QP:18.28 size: 21858 x264 : frame B:100153 Avg QP:20.22 size: 5542 x264 : consecutive B-frames: 1.7% 2.4% 6.1% 48.3% 11.6% 22.5% 3.0% 2.5% 0.4% 0.4% 0.3% 0.4% 0.3% x264 : mb I I16..4: 7.8% 74.9% 17.4% x264 : mb P I16..4: 0.8% 8.0% 1.1% P16..4: 40.5% 28.3% 14.0% 0.0% 0.0% skip: 7.3% x264 : mb B I16..4: 0.0% 0.5% 0.1% B16..8: 38.9% 10.3% 2.5% direct: 3.7% skip:43.9% L0:42.6% L1:45.7% BI:11.7% x264 : 8x8 transform intra:78.7% inter:61.1% x264 : direct mvs spatial:100.0% temporal:0.0% x264 : coded y, uvDC, uvAC intra: 88.5% 88.3% 69.8% inter: 17.5% 16.0% 8.0% x264 : i16 v, h, dc, p: 23% 9% 5% 62% x264 : i8 v, h, dc, ddl, ddr, vr, hd, vl, hu: 15% 10% 6% 8% 12% 13% 12% 12% 12% x264 : i4 v, h, dc, ddl, ddr, vr, hd, vl, hu: 14% 8% 3% 9% 15% 15% 13% 11% 11% x264 : i8c dc, h, v, p: 41% 21% 21% 17% x264 : Weighted P-Frames: Y:2.8% UV:0.9% x264 : ref P L0: 48.7% 10.3% 16.4% 5.6% 4.9% 3.1% 3.1% 1.8% 1.7% 1.2% 1.3% 1.0% 1.2% 0.0% 0.0% x264 : ref B L0: 74.6% 10.7% 4.8% 2.8% 1.7% 1.4% 1.1% 1.1% 0.7% 0.6% 0.4% 0.2% x264 : ref B L1: 95.1% 4.9% x264 : kb/s:1871.05 x264 : encoded 131740 frames, 10.76 fps, 1871.05 kb/s =================================================================== General Unique ID: 111639475464107341521263805865207720311 (0x53FCFB1AC4AB03AB545B437C2602E977) Complete name: D:\Svyashchennyj.tanec.2024.ATVP.WEB-DLRip.AVC.mkv Format: Matroska Format version: Version 4 File size: 1.61 GiB Duration: 1 h 31 min Overall bit rate: 2 513 kb/s Frame rate: 23.976 FPS Movie name: Fancy Dance (2023) WEB-DLRip-AVC _ vitolinform Encoded date: 2024-07-02 22:47:41 UTC Writing application: mkvmerge v85.0 ('Shame For You') 64-bit Writing library: libebml v1.4.5 + libmatroska v1.7.1 Attachments: poster.jpg / log.log Video ID: 1 Format: AVC Format/Info: Advanced Video Codec Format profile: High@L4.1 Format settings: CABAC / 13 Ref Frames Format settings, CABAC: Yes Format settings, Reference frames: 13 frames Codec ID: V_MPEG4/ISO/AVC Duration: 1 h 31 min Bit rate: 1 871 kb/s Width: 1 024 pixels Height: 554 pixels Display aspect ratio: 1.85:1 Frame rate mode: Constant Frame rate: 23.976 (24000/1001) FPS Color space: YUV Chroma subsampling: 4:2:0 Bit depth: 8 bits Scan type: Progressive Bits/(Pixel*Frame): 0.138 Stream size: 1.20 GiB (74%) Title: Священный танец / Fancy Dance (2023) Writing library: x264 core 164 r3182 be4f020 Encoding settings: cabac=1 / ref=13 / deblock=1:-3:-3 / analyse=0x3:0x113 / me=umh / subme=10 / psy=1 / psy_rd=1.00:0.05 / mixed_ref=1 / me_range=32 / chroma_me=1 / trellis=2 / 8x8dct=1 / cqm=0 / deadzone=21, 11 / fast_pskip=0 / chroma_qp_offset=-3 / threads=12 / lookahead_threads=3 / sliced_threads=0 / nr=0 / decimate=0 / interlaced=0 / bluray_compat=0 / constrained_intra=0 / bframes=12 / b_pyramid=2 / b_adapt=2 / b_bias=0 / direct=3 / weightb=1 / open_gop=0 / weightp=2 / keyint=240 / keyint_min=24 / scenecut=40 / intra_refresh=0 / rc_lookahead=60 / rc=crf / mbtree=0 / crf=18.5 / qcomp=0.60 / qpmin=0 / qpmax=69 / qpstep=4 / vbv_maxrate=50000 / vbv_bufsize=62500 / crf_max=0.0 / nal_hrd=none / filler=0 / ip_ratio=1.40 / pb_ratio=1.30 / aq=1:1.00 Language: English Default: Yes Forced: No Color range: Limited Color primaries: BT.709 Transfer characteristics: BT.709 Matrix coefficients: BT.709 Audio #1 ID: 2 Format: AC-3 Format/Info: Audio Coding 3 Commercial name: Dolby Digital Codec ID: A_AC3 Duration: 1 h 31 min Bit rate mode: Constant Bit rate: 192 kb/s Channel(s): 2 channels Channel layout: L R Sampling rate: 48.0 kHz Frame rate: 31.250 FPS (1536 SPF) Compression mode: Lossy Stream size: 126 MiB (8%) Title: MVO | HDRezka Studio Language: Russian Service kind: Complete Main Default: Yes Forced: No Audio #2 ID: 3 Format: AC-3 Format/Info: Audio Coding 3 Commercial name: Dolby Digital Codec ID: A_AC3 Duration: 1 h 31 min Bit rate mode: Constant Bit rate: 448 kb/s Channel(s): 6 channels Channel layout: L R C LFE Ls Rs Sampling rate: 48.0 kHz Frame rate: 31.250 FPS (1536 SPF) Compression mode: Lossy Stream size: 293 MiB (18%) Title: English Language: English Service kind: Complete Main Default: No Forced: No Text #1 ID: 4 Format: UTF-8 Codec ID: S_TEXT/UTF8 Codec ID/Info: UTF-8 Plain Text Duration: 1 h 17 min Bit rate: 2 b/s Frame rate: 0.005 FPS Count of elements: 25 Stream size: 1.36 KiB (0%) Title: Forced Language: Russian Default: Yes Forced: No Text #2 ID: 5 Format: UTF-8 Codec ID: S_TEXT/UTF8 Codec ID/Info: UTF-8 Plain Text Duration: 1 h 29 min Bit rate: 62 b/s Frame rate: 0.166 FPS Count of elements: 894 Stream size: 40.9 KiB (0%) Title: Full Language: Russian Default: No Forced: No Text #3 ID: 6 Format: UTF-8 Codec ID: S_TEXT/UTF8 Codec ID/Info: UTF-8 Plain Text Duration: 1 h 13 min Bit rate: 2 b/s Frame rate: 0.019 FPS Count of elements: 83 Stream size: 1.61 KiB (0%) Title: Forced Language: English Default: No Forced: No Text #4 ID: 7 Format: UTF-8 Codec ID: S_TEXT/UTF8 Codec ID/Info: UTF-8 Plain Text Duration: 1 h 24 min Bit rate: 45 b/s Frame rate: 0.177 FPS Count of elements: 894 Stream size: 27.9 KiB (0%) Title: Full Language: English Default: No Forced: No Text #5 ID: 8 Format: UTF-8 Codec ID: S_TEXT/UTF8 Codec ID/Info: UTF-8 Plain Text Duration: 1 h 25 min Bit rate: 50 b/s Frame rate: 0.198 FPS Count of elements: 1016 Stream size: 31.9 KiB (0%) Title: SDH Language: English Default: No Forced: No Text #6 ID: 9 Format: UTF-8 Codec ID: S_TEXT/UTF8 Codec ID/Info: UTF-8 Plain Text Duration: 1 h 29 min Bit rate: 64 b/s Frame rate: 0.168 FPS Count of elements: 907 Stream size: 42.4 KiB (0%) Title: Full Language: Ukrainian Default: No Forced: No Menu 00:00:00.000: en:Studio Logo 00:00:08.843: en:Main 01:27:25.791: en:Credits
Rip by vitolinform

Всего файлов в раздаче: 1 
Svyashchennyj.tanec.2024.ATVP.WEB-DLRip.AVC.mkv1.61 GB

Похожие раздачи по запросу - Священный
2024-07-03 magnet Священный танец / Fancy Dance (2023) WEB-DLRip от DoMiNo & селезень | P | HDRezka Studio 1.37 GB ↑ 0 ↓ 0
2024-07-02 magnet Священный танец / Fancy Dance (2023) WEB-DL 1080p от New-Team | P | HDRezka Studio 6.97 GB ↑ 0 ↓ 0
2024-07-02 magnet Священный танец / Fancy Dance (2023) WEB-DL 720p от селезень | P | HDRezka Studio 2.41 GB ↑ 0 ↓ 0
2024-07-02 magnet Священный танец / Fancy Dance (2023) WEB-DLRip от MegaPeer | P | HDRezka Studio 1.46 GB ↑ 0 ↓ 0

Комментарии


Зарегистрируйтесь чтобы добавить комментарий
Торрент клиент
byTorrent - программа для загрузки торрент-файлов.

Скачать byTorrent.exe (1,5 МБ)

Скачать byTorrent.zip (0,6 МБ)

Поддержи torrent.by
российских рублей
(300 российских рублей это 4$)

Обратная связь rss

End game ©