↑↓torrent.by
Поиск
Логин:  Регистрация
Пароль:

Смотрители / The Watchers (2024) WEB-DLRip-AVC | P | HDRezka Studio

download Скачать торрент-файл   magnet Магнитная ссылка Размер: 1.50 GB Раздают: 10 Качают: 0 Добавлен: il68k 2024-07-03 15:38
Пиры будут получены из сети DHT
Последний сидер был замечен сегодня в 03:22
Информация о фильме Название: Смотрители Оригинальное название: The Watchers Год выхода: 2023 Жанр: ужасы Режиссер: Ишана Шьямалан В ролях: Дакота Фаннинг, Джорджина Кэмпбелл, Олуэн Фуэре, Оливер Финнегэн, Алистэр Браммер, Джон Линч, Шиван Хьюлетт, Ханна Дарган, Эмили Дарган, Джоэль Фигероа О фильме: Мина оказывается посреди огромного непроходимого леса на западе Ирландии. Девушке удается найти убежище, но оно же становится ловушкой для нее и нескольких других людей. Каждую ночь таинственные незнакомцы собираются напротив их огромного панорамного окна и наблюдают за героями до восхода солнца. И, кажется, теперь наблюдатели особенно заинтересованы новенькой — Миной. Страна: Ирландия, США Студия: Blinding Edge Pictures, Bord Scannán na hÉireann / The Irish Film Board, Inimitable Pictures Продолжительность: 01:41:42 Перевод: Профессиональный (многоголосый закадровый) | HDRezka Studio Файл Кодек: H.264 Качество: WEB-DLRip-AVC Видео: MPEG-4 AVC, 1464 Kbps, 1024x554 (1.85:1), 23.976 fps, 0.108 bit/pixel, High@L4.1 Звук 1: 48 kHz, AC3 Dolby Digital, 2/0 (L, R) ch, ~192 kbps | HDRezka Studio Звук 2: 48 kHz, AC3 Dolby Digital, 3/2 (L, C, R, l, r) + LFE ch, ~448 kbps | Английский Субтитры: русские (forced, full), английские (full, SDH) Семпл
[+] Скриншоты
[+] MediaInfo raw : 1024x554p 1:1 @ 24000/1001 fps (cfr) x264 : using SAR=1/1 x264 : using cpu capabilities: MMX2 SSE2Fast SSSE3 SSE4.2 AVX FMA3 BMI2 AVX2 x264 : profile High, level 4.1, 4:2:0, 8-bit x264 : frame I:953 Avg QP:11.60 size: 57792 x264 : frame P:34900 Avg QP:13.98 size: 17707 x264 : frame B:110461 Avg QP:15.94 size: 4016 x264 : consecutive B-frames: 1.8% 2.3% 7.4% 54.9% 9.3% 13.1% 3.9% 2.6% 2.2% 0.6% 1.1% 0.4% 0.6% x264 : mb I I16..4: 14.5% 69.8% 15.7% x264 : mb P I16..4: 2.6% 8.2% 1.0% P16..4: 36.9% 25.6% 14.1% 0.0% 0.0% skip:11.7% x264 : mb B I16..4: 0.1% 0.3% 0.0% B16..8: 35.7% 9.6% 1.9% direct: 3.5% skip:48.8% L0:40.7% L1:50.9% BI: 8.4% x264 : 8x8 transform intra:69.6% inter:52.5% x264 : direct mvs spatial:99.9% temporal:0.1% x264 : coded y, uvDC, uvAC intra: 70.6% 66.4% 57.0% inter: 13.1% 12.8% 8.1% x264 : i16 v, h, dc, p: 54% 13% 10% 22% x264 : i8 v, h, dc, ddl, ddr, vr, hd, vl, hu: 16% 10% 21% 7% 9% 10% 9% 9% 10% x264 : i4 v, h, dc, ddl, ddr, vr, hd, vl, hu: 18% 11% 12% 9% 12% 11% 9% 9% 9% x264 : i8c dc, h, v, p: 57% 17% 18% 8% x264 : Weighted P-Frames: Y:3.9% UV:2.2% x264 : ref P L0: 56.4% 7.5% 15.6% 5.8% 3.9% 2.9% 2.2% 1.3% 1.1% 0.9% 0.8% 0.8% 0.8% 0.1% 0.0% x264 : ref B L0: 74.7% 11.9% 5.3% 2.4% 1.6% 1.2% 1.0% 0.6% 0.5% 0.4% 0.3% 0.1% x264 : ref B L1: 93.1% 6.9% x264 : kb/s:1463.88 x264 : encoded 146314 frames, 13.46 fps, 1463.88 kb/s =================================================================== General Unique ID: 12272957814536362719690934571055408819 (0x93BAF89C7F1A8058CF5F4F8DEE766B3) Complete name: D:\Smotriteli.2024.AMZN.WEB-DLRip.AVC.mkv Format: Matroska Format version: Version 4 File size: 1.50 GiB Duration: 1 h 41 min Overall bit rate: 2 106 kb/s Frame rate: 23.976 FPS Movie name: The Watchers (2024) WEB-DLRip-AVC _ vitolinform Encoded date: 2024-07-03 02:19:32 UTC Writing application: mkvmerge v85.0 ('Shame For You') 64-bit Writing library: libebml v1.4.5 + libmatroska v1.7.1 Attachments: poster.jpg / log.log Video ID: 1 Format: AVC Format/Info: Advanced Video Codec Format profile: High@L4.1 Format settings: CABAC / 13 Ref Frames Format settings, CABAC: Yes Format settings, Reference frames: 13 frames Codec ID: V_MPEG4/ISO/AVC Duration: 1 h 41 min Bit rate: 1 464 kb/s Width: 1 024 pixels Height: 554 pixels Display aspect ratio: 1.85:1 Frame rate mode: Constant Frame rate: 23.976 (24000/1001) FPS Color space: YUV Chroma subsampling: 4:2:0 Bit depth: 8 bits Scan type: Progressive Bits/(Pixel*Frame): 0.108 Stream size: 1.04 GiB (70%) Title: Смотрители / The Watchers (2024) Writing library: x264 core 164 r3182 be4f020 Encoding settings: cabac=1 / ref=13 / deblock=1:-3:-3 / analyse=0x3:0x113 / me=umh / subme=10 / psy=1 / psy_rd=1.00:0.05 / mixed_ref=1 / me_range=32 / chroma_me=1 / trellis=2 / 8x8dct=1 / cqm=0 / deadzone=21, 11 / fast_pskip=0 / chroma_qp_offset=-3 / threads=12 / lookahead_threads=3 / sliced_threads=0 / nr=0 / decimate=0 / interlaced=0 / bluray_compat=0 / constrained_intra=0 / bframes=12 / b_pyramid=2 / b_adapt=2 / b_bias=0 / direct=3 / weightb=1 / open_gop=0 / weightp=2 / keyint=240 / keyint_min=24 / scenecut=40 / intra_refresh=0 / rc_lookahead=60 / rc=crf / mbtree=0 / crf=18.4 / qcomp=0.60 / qpmin=0 / qpmax=69 / qpstep=4 / vbv_maxrate=50000 / vbv_bufsize=62500 / crf_max=0.0 / nal_hrd=none / filler=0 / ip_ratio=1.40 / pb_ratio=1.30 / aq=1:1.00 Language: English Default: Yes Forced: No Color range: Limited Color primaries: BT.709 Transfer characteristics: BT.709 Matrix coefficients: BT.709 Audio #1 ID: 2 Format: AC-3 Format/Info: Audio Coding 3 Commercial name: Dolby Digital Codec ID: A_AC3 Duration: 1 h 41 min Bit rate mode: Constant Bit rate: 192 kb/s Channel(s): 2 channels Channel layout: L R Sampling rate: 48.0 kHz Frame rate: 31.250 FPS (1536 SPF) Compression mode: Lossy Stream size: 140 MiB (9%) Title: MVO | HDRezka Studio Language: Russian Service kind: Complete Main Default: Yes Forced: No Audio #2 ID: 3 Format: AC-3 Format/Info: Audio Coding 3 Commercial name: Dolby Digital Codec ID: A_AC3 Duration: 1 h 41 min Bit rate mode: Constant Bit rate: 448 kb/s Channel(s): 6 channels Channel layout: L R C LFE Ls Rs Sampling rate: 48.0 kHz Frame rate: 31.250 FPS (1536 SPF) Compression mode: Lossy Stream size: 326 MiB (21%) Title: English Language: English Service kind: Complete Main Default: No Forced: No Text #1 ID: 4 Format: UTF-8 Codec ID: S_TEXT/UTF8 Codec ID/Info: UTF-8 Plain Text Duration: 1 h 18 min Bit rate: 1 b/s Frame rate: 0.004 FPS Count of elements: 19 Stream size: 667 Bytes (0%) Title: Forced Language: Russian Default: Yes Forced: No Text #2 ID: 5 Format: UTF-8 Codec ID: S_TEXT/UTF8 Codec ID/Info: UTF-8 Plain Text Duration: 1 h 34 min Bit rate: 75 b/s Frame rate: 0.184 FPS Count of elements: 1040 Stream size: 51.9 KiB (0%) Title: Full Language: Russian Default: No Forced: No Text #3 ID: 6 Format: UTF-8 Codec ID: S_TEXT/UTF8 Codec ID/Info: UTF-8 Plain Text Duration: 1 h 34 min Bit rate: 44 b/s Frame rate: 0.185 FPS Count of elements: 1043 Stream size: 31.0 KiB (0%) Title: Full Language: English Default: No Forced: No Text #4 ID: 7 Format: UTF-8 Codec ID: S_TEXT/UTF8 Codec ID/Info: UTF-8 Plain Text Duration: 1 h 34 min Bit rate: 58 b/s Frame rate: 0.246 FPS Count of elements: 1392 Stream size: 40.2 KiB (0%) Title: SDH Language: English Default: No Forced: No
Rip by vitolinform

Всего файлов в раздаче: 1 
Smotriteli.2024.AMZN.WEB-DLRip.AVC.mkv1.50 GB

Похожие раздачи по запросу - Смотрители
2024-07-17 magnet Смотрители / The Watchers (2024) UHD WEB-DL-HEVC 2160p | 4K | HDR | D, P | Movie Dubbing, Red Head Sound, HDRezka Studio 18.48 GB ↑ 0 ↓ 5
2024-07-14 magnet Смотрители / The Watchers (2024) WEB-DL 720p от селезень | D, P | Movie Dubbing, HDrezka, Red Head Sound 2.66 GB ↑ 0 ↓ 1
2024-07-14 magnet Смотрители / The Watchers (2024) WEB-DLRip 1080p | D, P | Movie Dubbing, HDrezka, RHS 7.68 GB ↑ 0 ↓ 2
2024-07-04 magnet Смотрители / The Watchers (2024) WEB-DL 1080p | P | Red Head Sound 4.81 GB ↑ 0 ↓ 0
2024-07-01 magnet Смотрители / The Watchers (2024) WEB-DL 720p от селезень | P | HDRezka Studio 2.11 GB ↑ 0 ↓ 0
2024-07-01 magnet Смотрители / The Watchers (2024) WEB-DLRip от DoMiNo & селезень | P | HDRezka Studio 1.37 GB ↑ 0 ↓ 0
2024-07-01 magnet Смотрители / The Watchers (2024) WEB-DLRip от AR-Team | P | HDRezka Studio 1.47 GB ↑ 0 ↓ 0

Комментарии


Зарегистрируйтесь чтобы добавить комментарий
Торрент клиент
byTorrent - программа для загрузки торрент-файлов.

Скачать byTorrent.exe (1,5 МБ)

Скачать byTorrent.zip (0,6 МБ)

Поддержи torrent.by
российских рублей
(300 российских рублей это 4$)

Обратная связь rss

End game ©