↑↓torrent.by
Поиск
Логин:  Регистрация
Пароль:

На автомате [01x01-06 из 08] (2024) WEB-DL 720p от ExKinoRay

download Скачать торрент-файл   magnet Магнитная ссылка Размер: 4.76 GB Добавлен: 2024-07-03 17:00
Пиры будут получены из сети DHT
Последний сидер был замечен 2024-07-20 18:50
Информация о фильме Название: На автомате Год выхода: 2024 Жанр: Комедия, криминал Режиссер: Борис Акопов В ролях: Слава Копейкин, Денис Косиков, Маргарита Галич, Агния Дитковските, Николай Шрайбер, Александра Урсуляк, Артур Бесчастный, Владимир Майзингер, Максим Стоянов, Иван Добронравов О фильме: Каждый день братьев-подростков Ромы и Жени проходит одинаково, на автомате: будильник, учёба, сигаретка за гаражом, склад с оружием... стоп, что? Парни решают, что это шанс быстро срубить лёгкие деньги, ведь надо всего-то продать автоматы в даркнете. Но где оружие, там и опасные люди - тут-то и начинается самое интересное. Очень скоро в истории оказываются замешаны все жители городка: мать-одиночка Светлана, хозяин ломбарда Альберт, тату-мастер Лёля, полицейский Басов, его дочь-блогерка Милена, а также столичные бандиты. Страна: Россия Студия: Flagman Film Company, Kinch, Марс Медиа Энтертейнмент, Студия Плюс Язык: Русский Файл Формат: MKV Качество: WEB-DL 720p Видео: MPEG-4 AVC, ~ 3000 Кбит/с, 1280x544, 25 кадр/с Аудио №1: AC3, 6 ch, 448 Кбит/с RUS Аудио №2: AC3, 6 ch, 448 Кбит/с | 18+ (1,4 серия) Субтитры: Русские (Full, SDH) Продолжительность: 6 х ~ 00:30:00 Реклама: Отсутствует
[+] МИ General Unique ID : 324924329439592776489507987279054746077 (0xF472264A66981DC64345F10D217DB1DD) Complete name : G:Na.avtomate.S01.2024.WEB-DL.720p.ExKinoRayNa.avtomate.S01.E01.2024.WEB-DL.720p.ExKinoRay.mkv Format : Matroska Format version : Version 4 File size : 816 MiB Duration : 29 min 16 s Overall bit rate : 3 897 kb/s Encoded date : UTC 2024-06-05 10:21:49 Writing application : mkvmerge v56.1.0 ('My Friend') 64-bit Writing library : libebml v1.4.2 + libmatroska v1.6.4 Video ID : 1 Format : AVC Format/Info : Advanced Video Codec Format profile : High@L4.1 Format settings : CABAC / 9 Ref Frames Format settings, CABAC : Yes Format settings, Reference frames : 9 frames Codec ID : V_MPEG4/ISO/AVC Duration : 29 min 16 s Bit rate : 3 000 kb/s Width : 1 280 pixels Height : 544 pixels Display aspect ratio : 2.35:1 Frame rate mode : Constant Frame rate : 25.000 FPS Color space : YUV Chroma subsampling : 4:2:0 Bit depth : 8 bits Scan type : Progressive Bits/(Pixel*Frame) : 0.172 Stream size : 628 MiB (77%) Writing library : x264 core 146 r2538 121396c Encoding settings : cabac=1 / ref=9 / deblock=1:-3:-3 / analyse=0x3:0x113 / me=umh / subme=11 / psy=1 / psy_rd=1.00:0.02 / mixed_ref=1 / me_range=32 / chroma_me=1 / trellis=2 / 8x8dct=1 / cqm=0 / deadzone=21,11 / fast_pskip=1 / chroma_qp_offset=-3 / threads=24 / lookahead_threads=8 / sliced_threads=0 / nr=0 / decimate=0 / interlaced=0 / bluray_compat=0 / constrained_intra=0 / bframes=10 / b_pyramid=2 / b_adapt=2 / b_bias=0 / direct=3 / weightb=1 / open_gop=0 / weightp=2 / keyint=250 / keyint_min=25 / scenecut=40 / intra_refresh=0 / rc_lookahead=60 / rc=2pass / mbtree=1 / bitrate=3000 / ratetol=1.0 / qcomp=0.60 / qpmin=0 / qpmax=69 / qpstep=4 / cplxblur=20.0 / qblur=0.5 / vbv_maxrate=14000 / vbv_bufsize=14000 / nal_hrd=none / filler=0 / ip_ratio=1.40 / aq=3:1.40 Language : Russian Default : Yes Forced : No Color range : Limited Color primaries : BT.709 Transfer characteristics : BT.709 Matrix coefficients : BT.709 Audio #1 ID : 2 Format : AC-3 Format/Info : Audio Coding 3 Commercial name : Dolby Digital Codec ID : A_AC3 Duration : 29 min 16 s Bit rate mode : Constant Bit rate : 448 kb/s Channel(s) : 6 channels Channel layout : L R C LFE Ls Rs Sampling rate : 48.0 kHz Frame rate : 31.250 FPS (1536 SPF) Compression mode : Lossy Stream size : 93.8 MiB (11%) Language : Russian Service kind : Complete Main Default : Yes Forced : No Audio #2 ID : 3 Format : AC-3 Format/Info : Audio Coding 3 Commercial name : Dolby Digital Codec ID : A_AC3 Duration : 29 min 16 s Bit rate mode : Constant Bit rate : 448 kb/s Channel(s) : 6 channels Channel layout : L R C LFE Ls Rs Sampling rate : 48.0 kHz Frame rate : 31.250 FPS (1536 SPF) Compression mode : Lossy Stream size : 93.8 MiB (11%) Title : +18 Language : Russian Service kind : Complete Main Default : No Forced : No Text #1 ID : 4 Format : UTF-8 Codec ID : S_TEXT/UTF8 Codec ID/Info : UTF-8 Plain Text Duration : 28 min 20 s Bit rate : 86 b/s Frame rate : 0.249 FPS Count of elements : 424 Stream size : 18.0 KiB (0%) Language : Russian Default : No Forced : No Text #2 ID : 5 Format : UTF-8 Codec ID : S_TEXT/UTF8 Codec ID/Info : UTF-8 Plain Text Duration : 28 min 55 s Bit rate : 103 b/s Frame rate : 0.278 FPS Count of elements : 482 Stream size : 21.9 KiB (0%) Title : SDH Language : Russian Default : No Forced : No
[+] Скриншоты
Релиз от:

Всего файлов в раздаче: 6 
Na.avtomate.S01.E01.2024.WEB-DL.720p.ExKinoRay.mkv815.98 MB
Na.avtomate.S01.E02.2024.WEB-DL.720p.ExKinoRay.mkv847.92 MB
Na.avtomate.S01.E03.2024.WEB-DL.720p.ExKinoRay.mkv820.83 MB
Na.avtomate.S01.E04.2024.WEB-DL.720p.ExKinoRay.mkv941.75 MB
Na.avtomate.S01.E05.2024.WEB-DL.720p.ExKinoRay.mkv732.69 MB
Na.avtomate.S01.E06.2024.WEB-DL.720p.ExKinoRay.mkv719.41 MB

Похожие раздачи по запросу - автомате
2024-07-20 magnet На автомате [S01] (2024) WEB-DLRip-AVC от Generalfilm | КПК 1.10 GB ↑ 1 ↓ 0
2024-07-18 magnet На автомате [S01] (2024) WEBRip-HEVC 2160p | 4K | SDR 20.03 GB ↑ 0 ↓ 0
2024-07-17 magnet На автомате [S01] (2024) WEB-DL 720p от ExKinoRay 6.34 GB ↑ 0 ↓ 0
2024-07-17 magnet На автомате [01х01-08 из 08] (2024) WEB-DLRip от Files-x 3.48 GB ↑ 0 ↓ 0
2024-07-17 magnet На автомате [S01] (2024) WEBRip-HEVC 2160p | 4K | HDR 20.53 GB ↑ 0 ↓ 0
2024-07-17 magnet На автомате [S01] (2024) WEBRip 1080p от ExKinoRay 7.82 GB ↑ 0 ↓ 0
2024-07-17 magnet На автомате [S01] (2024) WEBRip 1080p 10.70 GB ↑ 0 ↓ 0

Комментарии


Зарегистрируйтесь чтобы добавить комментарий
Торрент клиент
byTorrent - программа для загрузки торрент-файлов.

Скачать byTorrent.exe (1,5 МБ)

Скачать byTorrent.zip (0,6 МБ)

Поддержи torrent.by
российских рублей
(300 российских рублей это 4$)

Обратная связь rss

End game ©