↑↓torrent.by
Поиск
Логин:  Регистрация
Пароль:

Максимальное ускорение / Maximum Overdrive (1986) BDRip 720p от New-Team | P

download Скачать торрент-файл   magnet Магнитная ссылка Размер: 2.18 GB Добавлен: 2024-07-03 17:00
Пиры будут получены из сети DHT
Последний сидер был замечен 2024-07-03 17:00
Страна: США Производство: De Laurentiis, De Laurentiis Entertainment Group (DEG) Жанр: боевик, триллер, драма Год выпуска: 1986 Продолжительность: 01:33:39 Перевод: Профессиональный (двухголосый закадровый) R5 Оригинальная аудиодорожка: aнглийский Cубтитры: нет Режиссер: Стивен Кинг / Stephen King В ролях: Эмилио Эстевез, Пэт Хингл, Лора Хэррингтон, Ярдли Смит, Джон Шорт, Эллен МакЭлдафф, Дж. К. Куин, Кристофер Мёрни, Холтер Грэм, Фрэнки Фэйзон... Подробнее об актерах Описание: Когда комета Ри-М проходит через орбиту Земли и задевает ее своим хвостом, происходит глобальная катастрофа. Перестают качать насосы, выходят из строя компьютеры, электрические ножи режут домохозяек, а газонокосилки косят людей как траву. Внезапно ожившие машины из лучших друзей человека превращаются в его злейших врагов, жаждущих человеческой крови. Особенно безжалостно ведут себя огромные грузовики, давящие всех на своем пути. Горстка людей во главе с Билли Робинсоном, укрывшись от стаи взбесившихся грузовиков в здании бензозаправочной станции, готовится дать последний бой взбунтовавшимся машинам… Исходник: BDRemux 1080p Тип релиза: BDRip 720p Контейнер: MKV Видео: 1280x546 (2.35:1), 23,976 кадра/сек, x264 core 164 r3172 ~ 2 793 кбит/сек, 0.167 бит/пиксель Аудио: 48 кГц, Dolby Digital AC3 2.0, 192 кбит/сек R5 Аудио: 48 кГц, Dolby Digital AC3 2.0, 192 кбит/сек aнглийский Субтитры: SoftSub (srt) Оригинальная навигация по главам: есть Раздача от:
[+] MediaInfo Общее Полное имя : Максимальное ускорение.1986.BDRip720p__by_AVP_Studio.mkv Формат : Matroska Версия формата : Version 4 Размер файла : 2,18 Гбайт Продолжительность : 1 ч. 38 м. Общий поток : 3 179 Кбит/сек Частота кадров : 23,976 кадра/сек Дата кодирования : 2024-01-24 09:02:41 UTC Программа кодирования : mkvmerge v82.0 ('I'm The President') 64-bit Библиотека кодирования : libebml v1.4.5 + libmatroska v1.7.1 Видео Идентификатор : 1 Формат : AVC Формат/Информация : Advanced Video Codec Профиль формата : High@L4.1 Настройки формата : CABAC / 8 Ref Frames Параметр CABAC формата : Да Параметр RefFrames формата : 8 кадров Идентификатор кодека : V_MPEG4/ISO/AVC Продолжительность : 1 ч. 38 м. Битрейт : 2 793 Кбит/сек Ширина : 1 280 пикселей Высота : 546 пикселей Соотношение сторон : 2,35:1 Режим частоты кадров : Постоянный Частота кадров : 23,976 (24000/1001) кадра/сек Цветовое пространство : YUV Субдискретизация насыщенности : 4:2:0 Битовая глубина : 8 бит Тип развёртки : Прогрессивная Бит/(Пиксели*Кадры) : 0.167 Размер потока : 1,91 Гбайт (88%) Заголовок : Исходник BDRemux Библиотека кодирования : x264 core 164 r3172 c1c9931 Настройки программы : cabac=1 / ref=8 / deblock=1:-3:-3 / analyse=0x3:0x133 / me=umh / subme=10 / psy=1 / psy_rd=1.00:0.00 / mixed_ref=1 / me_range=32 / chroma_me=1 / trellis=2 / 8x8dct=1 / cqm=0 / deadzone=21,11 / fast_pskip=1 / chroma_qp_offset=-2 / threads=6 / lookahead_threads=1 / sliced_threads=0 / nr=0 / decimate=0 / interlaced=0 / bluray_compat=0 / constrained_intra=0 / bframes=8 / b_pyramid=2 / b_adapt=2 / b_bias=0 / direct=3 / weightb=1 / open_gop=0 / weightp=2 / keyint=240 / keyint_min=24 / scenecut=40 / intra_refresh=0 / rc=2pass / mbtree=0 / bitrate=2793 / ratetol=1.0 / qcomp=0.60 / qpmin=0 / qpmax=69 / qpstep=4 / cplxblur=20.0 / qblur=0.5 / ip_ratio=1.40 / pb_ratio=1.30 / aq=1:1.00 Язык : English Default : Да Forced : Нет Аудио #1 Идентификатор : 2 Формат : AC-3 Формат/Информация : Audio Coding 3 Коммерческое название : Dolby Digital Идентификатор кодека : A_AC3 Продолжительность : 1 ч. 38 м. Вид битрейта : Постоянный Битрейт : 192 Кбит/сек Каналы : 2 канала Channel layout : L R Частота : 48,0 КГц Частота кадров : 31,250 кадров/сек (1536 SPF) Метод сжатия : С потерями Размер потока : 135 Мбайт (6%) Заголовок : Профессиональный (двухголосый закадровый) R5 Язык : Russian Default : Да Forced : Нет Аудио #2 Идентификатор : 3 Формат : AC-3 Формат/Информация : Audio Coding 3 Коммерческое название : Dolby Digital Идентификатор кодека : A_AC3 Продолжительность : 1 ч. 38 м. Вид битрейта : Постоянный Битрейт : 192 Кбит/сек Каналы : 2 канала Channel layout : L R Частота : 48,0 КГц Частота кадров : 31,250 кадров/сек (1536 SPF) Метод сжатия : С потерями Размер потока : 135 Мбайт (6%) Заголовок : Оригинал Язык : English Default : Да Forced : Нет Текст Идентификатор : 4 Формат : UTF-8 Идентификатор кодека : S_TEXT/UTF8 Идентификатор кодека/Информация : UTF-8 Plain Text Продолжительность : 1 ч. 34 м. Битрейт : 47 бит/сек Частота кадров : 0,118 кадр/сек Count of elements : 671 Размер потока : 33,2 Кбайт (0%) Заголовок : SRT Язык : Russian Default : Нет Forced : Нет Меню 00:00:00.000 : en:1. Main Titles / A Situation Here! 00:07:05.300 : en:2. That's Some Rig 00:11:13.982 : en:3. Short Circuit 00:15:54.228 : en:4. A Close Call 00:19:33.580 : en:5. Is He Dead? 00:24:52.299 : en:6. Mechanical Revelt 00:29:28.541 : en:7. Duncan, Look Out! 00:34:45.291 : en:8. Surrounded 00:41:37.269 : en:9. Bombs Away! 00:45:36.141 : en:10. I'm Warning You! 00:51:18.850 : en:11. Lights Out 00:58:28.647 : en:12. Dead On Arrival? 01:05:09.013 : en:13. A Lesson In Manners 01:08:30.148 : en:14. You Want A War? 01:14:23.100 : en:15. Morse Code 01:16:36.634 : en:16. Risky Business 01:21:05.202 : en:17. The Coffee Break Is Over 01:25:30.634 : en:18. When I Say Run, You Run 01:30:46.416 : en:19. A Perfect Shot 01:35:24.393 : en:20. End Credits
[+] Скриншоты

Всего файлов в раздаче: 1 
Максимальное ускорение.1986.BDRip720p_[New-team]_by_AVP_Studio.mkv2.18 GB

Комментарии


Зарегистрируйтесь чтобы добавить комментарий
Торрент клиент
byTorrent - программа для загрузки торрент-файлов.

Скачать byTorrent.exe (1,5 МБ)

Скачать byTorrent.zip (0,6 МБ)

Поддержи torrent.by
российских рублей
(300 российских рублей это 4$)

Обратная связь rss

End game ©