↑↓torrent.by
Поиск
Логин:  Регистрация
Пароль:

Ненормальная / Некрасивая [S01] (2024) WEB-DL 1080p

download Скачать торрент-файл   magnet Магнитная ссылка Размер: 5.30 GB Добавлен: 2024-07-03 17:00
Пиры будут получены из сети DHT
Последний сидер был замечен 2024-07-09 18:02
Оригинальное название: Ненормальная / Некрасивая Год выпуска: 2024 Жанр: Драма, комедия Выпущено: Россия, Кинокомпания CTB Режиссер: Таисия Игуменцева В ролях: Варвара Володина, Виталий Андреев, Антон Рогачев, Кузьма Котрелев, Кирилл Кяро, Василий Кортуков, Ольга Тумайкина, Денис Зайнуллин, Регина Тодоренко, Марина Поддубная О сериале: Из-за забинтованного лица в детском отделении ее зовут Мумия. За два месяца изуродованной Ане пришлось серьезно повзрослеть. До аварии — это красивая, уверенная в себе школьница. После — замкнутое, циничное существо, готовое напасть даже на тех, кто пытается ей помочь. Каждый день Аня ищет новые причины, чтобы жить дальше, и новые уловки, чтобы остаться в больнице. Ведь недавно у нее появилась цель — убить лежащего в коме виновника той самой аварии, в которой погибли её родители. Для выполнения своего плана Аня собирает команду пациентов-неудачников, но в процессе подготовки понимает, что месть — это не лекарство. Файл Формат: MKV Качество: WEB-DL 1080p Видео: MPEG-4 AVC, ~ 3000 Кбит/с, 1920x804 Аудио: AAC, 2 ch, 192 Кбит/с Продолжительность: 8 x ~ 00:30:00 Язык: Русский Субтитры: Нет ВНИМАНИЕ! РЕЛИЗ 18+
[+] MediaInfo:General Unique ID : 235692578932029912595989621857053004170 (0xB150BD52B91F5412FC15E6917807518A) Complete name : F:TorrentsNekrasivaya.S01.1080p.WEB-DL.x264Nekrasivaya.S01E01.1080p.WEB-DL.x264.mkv Format : Matroska Format version : Version 4 File size : 709 MiB Duration : 30 min 32 s Overall bit rate : 3 245 kb/s Frame rate : 25.000 FPS Writing application : mkvmerge v82.0 ('I'm The President') 64-bit Writing library : libebml v1.4.5 + libmatroska v1.7.1 Video ID : 1 Format : AVC Format/Info : Advanced Video Codec Format profile : Progressive High@L4 Format settings : CABAC / 5 Ref Frames Format settings, CABAC : Yes Format settings, Reference : 5 frames Codec ID : V_MPEG4/ISO/AVC Duration : 30 min 32 s Bit rate : 3 047 kb/s Width : 1 920 pixels Height : 804 pixels Display aspect ratio : 2.39:1 Frame rate mode : Constant Frame rate : 25.000 FPS Color space : YUV Chroma subsampling : 4:2:0 Bit depth : 8 bits Scan type : Progressive Bits/(Pixel*Frame) : 0.079 Stream size : 666 MiB (94%) Writing library : x264 core 157 Encoding settings : cabac=1 / ref=5 / deblock=1:0:0 / analyse=0x3:0x133 / me=umh / subme=10 / psy=1 / psy_rd=1.00:0.00 / mixed_ref=1 / me_range=24 / chroma_me=1 / trellis=2 / 8x8dct=1 / cqm=0 / deadzone=21,11 / fast_pskip=1 / chroma_qp_offset=-2 / threads=25 / lookahead_threads=4 / sliced_threads=0 / nr=0 / decimate=1 / interlaced=0 / bluray_compat=0 / stitchable=1 / constrained_intra=0 / bframes=8 / b_pyramid=2 / b_adapt=2 / b_bias=0 / direct=3 / weightb=1 / open_gop=0 / weightp=2 / keyint=250 / keyint_min=25 / scenecut=40 / intra_refresh=0 / rc_lookahead=100 / rc=crf / mbtree=1 / crf=16.0 / qcomp=0.60 / qpmin=0 / qpmax=69 / qpstep=4 / ip_ratio=1.40 / aq=1:1.00 Language : English Default : Yes Forced : No Color range : Limited Matrix coefficients : BT.709 Audio ID : 2 Format : AAC LC Format/Info : Advanced Audio Codec Low Complexity Codec ID : A_AAC-2 Duration : 30 min 32 s Bit rate : 192 kb/s Channel(s) : 2 channels Channel layout : L R Sampling rate : 48.0 kHz Frame rate : 46.875 FPS (1024 SPF) Compression mode : Lossy Stream size : 42.6 MiB (6%) Language : Russian Default : Yes Forced : No
[+] Скриншоты

Всего файлов в раздаче: 8 
[NOOBDL]Nekrasivaya.S01E01.1080p.WEB-DL.x264.mkv708.77 MB
[NOOBDL]Nekrasivaya.S01E02.1080p.WEB-DL.x264.mkv699.32 MB
[NOOBDL]Nekrasivaya.S01E03.1080p.WEB-DL.x264.mkv687.93 MB
[NOOBDL]Nekrasivaya.S01E04.1080p.WEB-DL.x264.mkv649.63 MB
[NOOBDL]Nekrasivaya.S01E05.1080p.WEB-DL.x264.mkv628.44 MB
[NOOBDL]Nekrasivaya.S01E06.1080p.WEB-DL.x264.mkv683.35 MB
[NOOBDL]Nekrasivaya.S01E07.1080p.WEB-DL.x264.mkv690.89 MB
[NOOBDL]Nekrasivaya.S01E08.1080p.WEB-DL.x264.mkv677.51 MB

Похожие раздачи по запросу - Ненормальная
2024-07-08 magnet Ненормальная / Некрасивая [S01] (2024) WEB-DLRip-AVC от Generalfilm | КПК 1.03 GB ↑ 0 ↓ 0
2024-07-07 magnet Ненормальная / Некрасивая [S01] (2024) WEB-DLRip 2.73 GB ↑ 0 ↓ 0
2024-07-03 magnet Ненормальная / Некрасивая [S01] (2024) WEB-DLRip-AVC от Files-x 2.92 GB ↑ 0 ↓ 0
2024-07-03 magnet Ненормальная / Некрасивая [S01] (2024) WEB-DL-HEVC 2160p | 4K | SDR 12.13 GB ↑ 0 ↓ 0

Комментарии


Зарегистрируйтесь чтобы добавить комментарий
Торрент клиент
byTorrent - программа для загрузки торрент-файлов.

Скачать byTorrent.exe (1,5 МБ)

Скачать byTorrent.zip (0,6 МБ)

Поддержи torrent.by
российских рублей
(300 российских рублей это 4$)

Обратная связь rss

End game ©