↑↓torrent.by
Поиск
Логин:  Регистрация
Пароль:

Полицейский из Беверли-Хиллз: Аксель Фоули / Beverly Hills Cop: Axel F (2024) WEB-DL 720p | D

download Скачать торрент-файл   magnet Магнитная ссылка Размер: 3.42 GB Добавлен: 2024-07-03 17:00
Пиры будут получены из сети DHT
Последний сидер был замечен сегодня в 08:54
Информация о фильме Название: Полицейский из Беверли-Хиллз: Аксель Фоули Оригинальное название: Beverly Hills Cop: Axel F Год выхода: 2024 Жанр: Боевик, триллер, комедия, криминал Страна: США Перевод: Дублированный | Netflix Продолжительность: 01:57:56 Режиссер: Марк Моллой В ролях: Эдди Мерфи, Джадж Райнхолд, Кевин Бейкон, Джозеф Гордон-Левитт, Джон Эштон, Бронсон Пиншо, Марк Пеллегрино, Пол Райзер, Тейлор Пейдж, Джеймс Роджерс и др. О фильме: Детектив Аксель Фоули снова возвращается на улицы Беверли-Хиллз. После того, как жизнь его дочери Джейн оказывается в опасности, они объединяют силы с новым партнером, детективом Бобби Эбботом, и старыми приятелями — Билли Роузвудом и Джоном Тэггартом, чтобы задать жару негодяям и раскрыть преступный заговор. Файл Качество: WEB-DL 720p Видео: MPEG-4 AVC, 1280x720, ~2000 kbps, 24,000 fps Звук#1: русский, E-AC3, 5.1 ch, 48 kHz, 640 kbps Звук#2: украинский, E-AC3 JOC, 5.1 ch, 48 kHz, 768 kbps Звук#3: английский, E-AC3 JOC, 5.1 ch, 48 kHz, 768 kbps Субтитры: русские (форс., полные), украинские (форс., полные), английские (форс., полные, SDH)
[+] MIОбщее Уникальный идентификатор : 209365827788728956864884058335518008803 (0x9D826446E88085ADA9DC17EA504625E3) Полное имя : I:BeverlyHillsCopAxelFWEBDL720p.mkv Формат : Matroska Версия формата : Version 4 Размер файла : 3,42 Гбайт Продолжительность : 1 ч. 57 м. Режим общего битрейта : Переменный Общий поток : 4 151 Кбит/сек Частота кадров : 24,000 кадра/сек Дата кодирования : 2024-07-03 07:54:13 UTC Программа кодирования : mkvmerge v9.5.0 ('Quiet Fire') 64bit Библиотека кодирования : libebml v1.3.4 + libmatroska v1.4.5 Видео Идентификатор : 1 Формат : AVC Формат/Информация : Advanced Video Codec Профиль формата : Main@L3.1 Настройки формата : CABAC / 3 Ref Frames Параметр CABAC формата : Да Параметр RefFrames формата : 3 кадра Идентификатор кодека : V_MPEG4/ISO/AVC Продолжительность : 1 ч. 57 м. Вид битрейта : Переменный Битрейт : 1 972 Кбит/сек Номинальный битрейт : 1 527 Кбит/сек Максимальный битрейт : 2 660 Кбит/сек Ширина : 1 280 пикселей Высота : 720 пикселей Соотношение сторон : 16:9 Режим частоты кадров : Постоянный Частота кадров : 24,000 кадра/сек Цветовое пространство : YUV Субдискретизация насыщенности : 4:2:0 Битовая глубина : 8 бит Тип развёртки : Прогрессивная Бит/(Пиксели*Кадры) : 0.089 Размер потока : 1,62 Гбайт (48%) Библиотека кодирования : x264 core 148 r2727 7d026e8 Настройки программы : cabac=1 / ref=3 / deblock=1:0:0 / analyse=0x1:0x111 / me=umh / subme=10 / psy=1 / psy_rd=1.00:0.00 / mixed_ref=1 / me_range=24 / chroma_me=1 / trellis=2 / 8x8dct=0 / cqm=0 / deadzone=21,11 / fast_pskip=1 / chroma_qp_offset=-2 / threads=6 / lookahead_threads=1 / sliced_threads=0 / nr=0 / decimate=1 / interlaced=0 / bluray_compat=0 / stitchable=1 / constrained_intra=0 / bframes=2 / b_pyramid=0 / b_adapt=2 / b_bias=0 / direct=3 / weightb=1 / open_gop=0 / weightp=2 / keyint=240 / keyint_min=121 / scenecut=0 / intra_refresh=0 / rc_lookahead=48 / rc=2pass / mbtree=1 / bitrate=1527 / ratetol=1.0 / qcomp=0.50 / qpmin=6 / qpmax=51 / qpstep=4 / cplxblur=20.0 / qblur=0.5 / vbv_maxrate=2660 / vbv_bufsize=4433 / nal_hrd=vbr / filler=0 / ip_ratio=1.40 / aq=1:1.00 Язык : English Default : Да Forced : Нет Аудио #1 Идентификатор : 2 Формат : E-AC-3 Формат/Информация : Enhanced AC-3 Коммерческое название : Dolby Digital Plus Идентификатор кодека : A_EAC3 Продолжительность : 1 ч. 57 м. Вид битрейта : Постоянный Битрейт : 640 Кбит/сек Каналы : 6 каналов Channel layout : L R C LFE Ls Rs Частота : 48,0 КГц Частота кадров : 31,250 кадров/сек (1536 SPF) Метод сжатия : С потерями Размер потока : 540 Мбайт (15%) Заголовок : rus Язык : Russian Default : Да Forced : Нет Аудио #2 Идентификатор : 3 Формат : E-AC-3 JOC Формат/Информация : Enhanced AC-3 with Joint Object Coding Коммерческое название : Dolby Digital Plus with Dolby Atmos Идентификатор кодека : A_EAC3 Продолжительность : 1 ч. 57 м. Вид битрейта : Постоянный Битрейт : 768 Кбит/сек Каналы : 6 каналов Channel layout : L R C LFE Ls Rs Частота : 48,0 КГц Частота кадров : 31,250 кадров/сек (1536 SPF) Метод сжатия : С потерями Размер потока : 648 Мбайт (19%) Заголовок : ukr Язык : Ukrainian Default : Нет Forced : Нет Complexity index : 16 Number of dynamic objects : 15 Bed channel count : 1 канал Bed channel configuration : LFE Аудио #3 Идентификатор : 4 Формат : E-AC-3 JOC Формат/Информация : Enhanced AC-3 with Joint Object Coding Коммерческое название : Dolby Digital Plus with Dolby Atmos Идентификатор кодека : A_EAC3 Продолжительность : 1 ч. 57 м. Вид битрейта : Постоянный Битрейт : 768 Кбит/сек Каналы : 6 каналов Channel layout : L R C LFE Ls Rs Частота : 48,0 КГц Частота кадров : 31,250 кадров/сек (1536 SPF) Метод сжатия : С потерями Размер потока : 648 Мбайт (19%) Заголовок : eng Язык : English Default : Нет Forced : Нет Complexity index : 16 Number of dynamic objects : 15 Bed channel count : 1 канал Bed channel configuration : LFE Текст #1 Идентификатор : 5 Формат : UTF-8 Идентификатор кодека : S_TEXT/UTF8 Идентификатор кодека/Информация : UTF-8 Plain Text Продолжительность : 1 ч. 46 м. Битрейт : 1 бит/сек Частота кадров : 0,004 кадр/сек Count of elements : 28 Размер потока : 975 байт (0%) Заголовок : rus Forced Язык : Russian Default : Да Forced : Нет Текст #2 Идентификатор : 6 Формат : UTF-8 Идентификатор кодека : S_TEXT/UTF8 Идентификатор кодека/Информация : UTF-8 Plain Text Продолжительность : 1 ч. 54 м. Битрейт : 111 бит/сек Частота кадров : 0,259 кадр/сек Count of elements : 1780 Размер потока : 93,7 Кбайт (0%) Заголовок : rus Full Язык : Russian Default : Нет Forced : Нет Текст #3 Идентификатор : 7 Формат : UTF-8 Идентификатор кодека : S_TEXT/UTF8 Идентификатор кодека/Информация : UTF-8 Plain Text Продолжительность : 1 ч. 46 м. Битрейт : 1 бит/сек Частота кадров : 0,005 кадр/сек Count of elements : 30 Размер потока : 1,16 Кбайт (0%) Заголовок : ukr Forced Язык : Ukrainian Default : Нет Forced : Нет Текст #4 Идентификатор : 8 Формат : UTF-8 Идентификатор кодека : S_TEXT/UTF8 Идентификатор кодека/Информация : UTF-8 Plain Text Продолжительность : 1 ч. 54 м. Битрейт : 106 бит/сек Частота кадров : 0,264 кадр/сек Count of elements : 1816 Размер потока : 89,7 Кбайт (0%) Заголовок : ukr Full Язык : Ukrainian Default : Нет Forced : Нет Текст #5 Идентификатор : 9 Формат : UTF-8 Идентификатор кодека : S_TEXT/UTF8 Идентификатор кодека/Информация : UTF-8 Plain Text Продолжительность : 42 м. 16 с. Битрейт : 0 бит/сек Частота кадров : 0,002 кадр/сек Count of elements : 4 Размер потока : 105 байт (0%) Заголовок : eng Forced Язык : English Default : Нет Forced : Нет Текст #6 Идентификатор : 10 Формат : UTF-8 Идентификатор кодека : S_TEXT/UTF8 Идентификатор кодека/Информация : UTF-8 Plain Text Продолжительность : 1 ч. 51 м. Битрейт : 92 бит/сек Частота кадров : 0,304 кадр/сек Count of elements : 2038 Размер потока : 76,0 Кбайт (0%) Заголовок : eng Full Язык : English Default : Нет Forced : Нет Текст #7 Идентификатор : 11 Формат : UTF-8 Идентификатор кодека : S_TEXT/UTF8 Идентификатор кодека/Информация : UTF-8 Plain Text Продолжительность : 1 ч. 51 м. Битрейт : 100 бит/сек Частота кадров : 0,336 кадр/сек Count of elements : 2255 Размер потока : 82,5 Кбайт (0%) Заголовок : eng SDH Язык : English Default : Нет Forced : Нет
[+] Скриншоты
Релиз от:

Всего файлов в раздаче: 1 
BeverlyHillsCopAxelFWEBDL720p.mkv3.42 GB

Похожие раздачи по запросу - Полицейский
2024-07-19 magnet Полицейский из Беверли-Хиллз: Аксель Фоули / Beverly Hills Cop: Axel F (2024) UHD WEB-DL 2160p | 4K | HDR | Dolby Vision Profile 8 | D, P, A, L 15.93 GB ↑ 1 ↓ 4
2024-07-17 magnet Полицейский из Беверли-Хиллз: Аксель Фоули / Beverly Hills Cop: Axel F (2024) WEB-DLRip 1080p | D, P, P2, L, A 12.78 GB ↑ 0 ↓ 16
2024-07-15 magnet Полицейский из Беверли-Хиллз: Аксель Фоули / Beverly Hills Cop: Axel F (2024) WEB-DL 1080p от New-Team | D, P, P2, A 7.19 GB ↑ 0 ↓ 24
2024-07-13 magnet Полицейский из Беверли-Хиллз: Аксель Фоули / Beverly Hills Cop: Axel F (2024) WEB-DLRip-AVC от ExKinoRay | D 744.94 MB ↑ 0 ↓ 3
2024-07-12 magnet Полицейский из Беверли-Хиллз: Аксель Фоули / Beverly Hills Cop: Axel F (2024) UHD WEB-DL 2160p | 4K | HDR | Dolby Vision Profile 8 | D, P, A 12.09 GB ↑ 1 ↓ 7
2024-07-08 magnet Полицейский из Беверли-Хиллз: Аксель Фоули / Beverly Hills Cop: Axel F (2024) WEB-DL 1080p от селезень | D, P | Videofilm Int., TVShows 5.50 GB ↑ 1 ↓ 1
2024-07-08 magnet Полицейский из Беверли-Хиллз: Аксель Фоули / Beverly Hills Cop: Axel F (2024) WEB-DLRip | P2 1.46 GB ↑ 0 ↓ 0

Комментарии


Зарегистрируйтесь чтобы добавить комментарий
Торрент клиент
byTorrent - программа для загрузки торрент-файлов.

Скачать byTorrent.exe (1,5 МБ)

Скачать byTorrent.zip (0,6 МБ)

Поддержи torrent.by
российских рублей
(300 российских рублей это 4$)

Обратная связь rss

End game ©