↑↓torrent.by
Поиск
Логин:  Регистрация
Пароль:

Полицейский из Беверли-Хиллз: Аксель Фоули / Beverly Hills Cop: Axel F (2024) WEB-DLRip 720p от DoMiNo & селезень | D | Videofilm Int.

download Скачать торрент-файл   magnet Магнитная ссылка Размер: 2.53 GB Раздают: 0 Качают: 1 Добавлен: 2024-07-03 18:57
Пиры будут получены из сети DHT
Последний сидер был замечен вчера в 18:51
Информация о фильме Название: Полицейский из Беверли-Хиллз: Аксель Фоули Оригинальное название: Beverly Hills Cop: Axel F Год выхода: 2024 Жанр: боевик, триллер, комедия, криминал Режиссер: Марк Моллой В ролях: Эдди Мерфи, Джадж Райнхолд, Джозеф Гордон-Левитт, Кевин Бейкон, Бронсон Пиншо, Джон Эштон, Пол Райзер, Тейлор Пейдж, Сара Старк, Джеймс Роджерс, Патриша Белчер, Эффион Крокетт, Сюзанн Форд, Джованни Крус, Сара Эбрелл О фильме: Детектив Аксель Фоули снова возвращается на улицы Беверли-Хиллз. После того, как жизнь его дочери Джейн оказывается в опасности, они объединяют силы с новым партнером, детективом Бобби Эбботом, и старыми приятелями — Билли Роузвудом и Джоном Тэггартом, чтобы задать жару негодяям и раскрыть преступный заговор. Страна: США Продолжительность: 01:57:56 Перевод: Дублированный (официальный) | Videofilm Int. Субтитры: Русские (Forced, 2x Full), английские (Forced, SDH) Файл Формат: Matroska Качество: WEB-DLRip 720p Видео: 1280x536 at 24.000 fps, x264@L4.1, ~2430 kbps Аудио: AC3, 6 ch, ~640 kbps - | Русский | Формат субтитров: softsub (SRT) ***Рип от: -=DoMiNo=- *** Дебандинг, зерно.
[+] M/IGeneral Unique ID : 177573423627348854140720098274130918268 (0x859765BB4B38B3E3B3BB6F99B161FB7C) Complete name : U:Beverly.Hills.Cop.Axel.F.2024.DUB.NF.WEB-DLRip.720p.x264.seleZen.mkv Format : Matroska Format version : Version 4 File size : 2.53 GiB Duration : 1 h 57 min Overall bit rate : 3 072 kb/s Frame rate : 24.000 FPS Movie name : Beverly.Hills.Cop.Axel.F.2024.DUB.NF.WEB-DLRip.720p.x264.seleZen Encoded date : 2024-07-03 09:02:39 UTC Writing application : mkvmerge v85.0 ('Shame For You') 64-bit Writing library : libebml v1.4.5 + libmatroska v1.7.1 Cover : Yes Attachments : cover.jpg / small_cover.jpg Video ID : 1 Format : AVC Format/Info : Advanced Video Codec Format profile : High@L4.1 Format settings : CABAC / 5 Ref Frames Format settings, CABAC : Yes Format settings, Reference : 5 frames Codec ID : V_MPEG4/ISO/AVC Duration : 1 h 57 min Bit rate : 2 430 kb/s Width : 1 280 pixels Height : 536 pixels Display aspect ratio : 2.39:1 Frame rate mode : Constant Frame rate : 24.000 FPS Color space : YUV Chroma subsampling : 4:2:0 Bit depth : 8 bits Scan type : Progressive Bits/(Pixel*Frame) : 0.148 Stream size : 2.00 GiB (79%) Title : -=DoMiNo=- Writing library : x264 core 164 r3191 -DoMiNo Encoding settings : cabac=1 / ref=5 / deblock=1:-3:-2 / analyse=0x3:0x133 / me=umh / subme=10 / psy=1 / psy_rd=1.00:0.15 / mixed_ref=1 / me_range=32 / chroma_me=1 / trellis=2 / 8x8dct=1 / cqm=0 / deadzone=21,11 / fast_pskip=0 / chroma_qp_offset=-3 / threads=17 / lookahead_threads=4 / sliced_threads=0 / nr=0 / decimate=1 / interlaced=0 / bluray_compat=0 / constrained_intra=0 / bframes=12 / b_pyramid=2 / b_adapt=2 / b_bias=0 / direct=3 / weightb=1 / open_gop=0 / weightp=2 / keyint=240 / keyint_min=24 / scenecut=40 / intra_refresh=0 / rc_lookahead=60 / rc=crf / mbtree=0 / crf=19.5 / qcomp=0.60 / qpmin=0 / qpmax=69 / qpstep=4 / vbv_maxrate=50000 / vbv_bufsize=62500 / crf_max=0.0 / nal_hrd=none / filler=0 / ip_ratio=1.34 / pb_ratio=1.30 / aq=1:0.90 Language : English Default : Yes Forced : No Color range : Limited Color primaries : BT.709 Transfer characteristics : BT.709 Matrix coefficients : BT.709 Audio ID : 2 Format : AC-3 Format/Info : Audio Coding 3 Commercial name : Dolby Digital Codec ID : A_AC3 Duration : 1 h 57 min Bit rate mode : Constant Bit rate : 640 kb/s Channel(s) : 6 channels Channel layout : L R C LFE Ls Rs Sampling rate : 48.0 kHz Frame rate : 31.250 FPS (1536 SPF) Compression mode : Lossy Stream size : 540 MiB (21%) Title : Dub - Videofilm Int. Language : Russian Service kind : Complete Main Default : Yes Forced : No Dialog Normalization : -24 dB compr : -0.28 dB cmixlev : -3.0 dB surmixlev : -3 dB mixlevel : 285 dB roomtyp : 3 ltrtcmixlev : -3.0 dB ltrtsurmixlev : -3.0 dB lorocmixlev : -3.0 dB lorosurmixlev : -4.5 dB dialnorm_Average : -24 dB dialnorm_Minimum : -24 dB dialnorm_Maximum : -24 dB Text #1 ID : 3 Format : UTF-8 Codec ID : S_TEXT/UTF8 Codec ID/Info : UTF-8 Plain Text Duration : 1 h 46 min Bit rate : 1 b/s Frame rate : 0.004 FPS Count of elements : 28 Stream size : 993 Bytes (0%) Title : Forced Language : Russian Default : No Forced : No Text #2 ID : 4 Format : UTF-8 Codec ID : S_TEXT/UTF8 Codec ID/Info : UTF-8 Plain Text Duration : 1 h 48 min Bit rate : 135 b/s Frame rate : 0.249 FPS Count of elements : 1626 Stream size : 108 KiB (0%) Language : Russian Default : No Forced : No Text #3 ID : 5 Format : UTF-8 Codec ID : S_TEXT/UTF8 Codec ID/Info : UTF-8 Plain Text Duration : 1 h 54 min Bit rate : 111 b/s Frame rate : 0.259 FPS Count of elements : 1780 Stream size : 93.7 KiB (0%) Language : Russian Default : No Forced : No Text #4 ID : 6 Format : UTF-8 Codec ID : S_TEXT/UTF8 Codec ID/Info : UTF-8 Plain Text Duration : 42 min 16 s Bit rate : 0 b/s Frame rate : 0.002 FPS Count of elements : 4 Stream size : 105 Bytes (0%) Title : Forced Language : English Default : No Forced : No Text #5 ID : 7 Format : UTF-8 Codec ID : S_TEXT/UTF8 Codec ID/Info : UTF-8 Plain Text Duration : 1 h 51 min Bit rate : 101 b/s Frame rate : 0.336 FPS Count of elements : 2258 Stream size : 83.2 KiB (0%) Title : SDH Language : English Default : No Forced : No Menu 00:00:00.000 : en:Part 01 01:49:11.450 : en:Credits
Релиз: Присоединяйся к: Кликай на баннеры.

Всего файлов в раздаче: 1 
Beverly.Hills.Cop.Axel.F.2024.DUB.NF.WEB-DLRip.720p.x264.seleZen.mkv2.53 GB

Похожие раздачи по запросу - Полицейский
2024-07-19 magnet Полицейский из Беверли-Хиллз: Аксель Фоули / Beverly Hills Cop: Axel F (2024) UHD WEB-DL 2160p | 4K | HDR | Dolby Vision Profile 8 | D, P, A, L 15.93 GB ↑ 1 ↓ 7
2024-07-17 magnet Полицейский из Беверли-Хиллз: Аксель Фоули / Beverly Hills Cop: Axel F (2024) WEB-DLRip 1080p | D, P, P2, L, A 12.78 GB ↑ 0 ↓ 4
2024-07-15 magnet Полицейский из Беверли-Хиллз: Аксель Фоули / Beverly Hills Cop: Axel F (2024) WEB-DL 1080p от New-Team | D, P, P2, A 7.19 GB ↑ 0 ↓ 6
2024-07-13 magnet Полицейский из Беверли-Хиллз: Аксель Фоули / Beverly Hills Cop: Axel F (2024) WEB-DLRip-AVC от ExKinoRay | D 744.94 MB ↑ 1 ↓ 3
2024-07-12 magnet Полицейский из Беверли-Хиллз: Аксель Фоули / Beverly Hills Cop: Axel F (2024) UHD WEB-DL 2160p | 4K | HDR | Dolby Vision Profile 8 | D, P, A 12.09 GB ↑ 2 ↓ 4
2024-07-08 magnet Полицейский из Беверли-Хиллз: Аксель Фоули / Beverly Hills Cop: Axel F (2024) WEB-DL 1080p от селезень | D, P | Videofilm Int., TVShows 5.50 GB ↑ 0 ↓ 1
2024-07-08 magnet Полицейский из Беверли-Хиллз: Аксель Фоули / Beverly Hills Cop: Axel F (2024) WEB-DLRip | P2 1.46 GB ↑ 0 ↓ 0

Комментарии


Зарегистрируйтесь чтобы добавить комментарий
Торрент клиент
byTorrent - программа для загрузки торрент-файлов.

Скачать byTorrent.exe (1,5 МБ)

Скачать byTorrent.zip (0,6 МБ)

Поддержи torrent.by
российских рублей
(300 российских рублей это 4$)

Обратная связь rss

End game ©