↑↓torrent.by
Поиск
Логин:  Регистрация
Пароль:

Полицейский из Беверли-Хиллз: Аксель Фоули / Beverly Hills Cop: Axel F (2024) WEB-DLRip от New-Team | D

download Скачать торрент-файл   magnet Магнитная ссылка Размер: 1.46 GB Раздают: 0 Качают: 1 Добавлен: 2024-07-03 17:00
Пиры будут получены из сети DHT
Последний сидер был замечен сегодня в 13:06
Полицейский из Беверли-Хиллз: Аксель Фоули / Beverly Hills Cop: Axel F Год выпуска: 2024 Выпущено: США / Don Simpson/Jerry Bruckheimer Films, Eddie Murphy Productions Жанр: боевик, триллер, комедия, криминал Режиссер: Марк Моллой / Mark Molloy В ролях: Эдди Мерфи, Джадж Райнхолд, Джозеф Гордон-Левитт, Кевин Бейкон, Бронсон Пиншо, Джон Эштон, Пол Райзер, Тейлор Пейдж, Сара Старк, Джеймс Роджерс, Патриша Белчер, Эффион Крокетт, Сюзанн Форд, Джованни Крус, Сара Эбрелл О фильме: Детектив Аксель Фоули снова возвращается на улицы Беверли-Хиллз. После того, как жизнь его дочери Джейн оказывается в опасности, они объединяют силы с новым партнером, детективом Бобби Эбботом, и старыми приятелями — Билли Роузвудом и Джоном Тэггартом, чтобы задать жару негодяям и раскрыть преступный заговор. Продолжительность: 01:57:56 Перевод: Профессиональный (полное дублирование) | Videofilm Int. Субтитры: Русские (forced, full), английские Раздача от : Формат: AVI Качество: WEB-DLRip Видео: 720x304 (2.35:1), 24,000 fps, XviD MPEG-4 ~ 1381 kbps avg, 0.263 bit/pixel, build 74 Аудио: 48 kHz, AC3 Dolby Digital, 3/2 (L,C,R,l,r) + LFE ch, ~ 384 kbps | RUS |
[+] MediaInfoОбщее Полное имя : D:TorrentsBeverly.Hills.Cop.Axel.F.2024.WEB-DLRip_от New-TeamBeverly.Hills.Cop.Axel.F.2024.WEB-DLRip_от New-Team.avi Формат : AVI Формат/Информация : Audio Video Interleave Размер файла : 1,46 Гбайт Продолжительность : 1 ч. 57 м. Общий поток : 1 775 Кбит/сек Программа кодирования : VirtualDubMod 1.5.10.2 (build 2540/release) Библиотека кодирования : VirtualDubMod build 2540/release Видео Идентификатор : 0 Формат : MPEG-4 Visual Профиль формата : Advanced Simple@L5 Настройки формата : BVOP1 / Custom Matrix Параметр BVOP формата : 1 Параметр QPel формата : Нет Параметр GMC формата : Без точки перехода Параметр матрицы формата : Выборочная Идентификатор кодека : XVID Идентификатор кодека/Подсказка : XviD Продолжительность : 1 ч. 57 м. Битрейт : 1 381 Кбит/сек Ширина : 720 пикселей Высота : 304 пикселя Соотношение сторон : 2,35:1 Частота кадров : 24,000 кадра/сек Цветовое пространство : YUV Субдискретизация насыщенности : 4:2:0 Битовая глубина : 8 бит Тип развёртки : Прогрессивная Метод сжатия : С потерями Бит/(Пиксели*Кадры) : 0.263 Размер потока : 1,14 Гбайт (78%) Библиотека кодирования : XviD 74 Аудио Идентификатор : 1 Формат : AC-3 Формат/Информация : Audio Coding 3 Коммерческое название : Dolby Digital Идентификатор кодека : 2000 Продолжительность : 1 ч. 57 м. Вид битрейта : Постоянный Битрейт : 384 Кбит/сек Каналы : 6 каналов Channel layout : L R C LFE Ls Rs Частота : 48,0 КГц Частота кадров : 31,250 кадров/сек (1536 SPF) Метод сжатия : С потерями Размер потока : 324 Мбайт (22%) Выравнивание : Разделение по промежуткам Продолжительность промежутка : 42 мс. (1,00 видеокадр) Время предзагрузки промежутка : 500 мс. Service kind : Complete Main

Всего файлов в раздаче: 4 
Beverly.Hills.Cop.Axel.F.2024.WEB-DLRip_от New-Team.avi1.46 GB
Beverly.Hills.Cop.Axel.F.2024.WEB-DLRip_от New-Team_[eng].srt156.53 kB
Beverly.Hills.Cop.Axel.F.2024.WEB-DLRip_от New-Team_forced_[rus].srt2.01 kB
Beverly.Hills.Cop.Axel.F.2024.WEB-DLRip_от New-Team_full_[rus].srt163.89 kB

Похожие раздачи по запросу - Полицейский
2024-07-19 magnet Полицейский из Беверли-Хиллз: Аксель Фоули / Beverly Hills Cop: Axel F (2024) UHD WEB-DL 2160p | 4K | HDR | Dolby Vision Profile 8 | D, P, A, L 15.93 GB ↑ 1 ↓ 6
2024-07-17 magnet Полицейский из Беверли-Хиллз: Аксель Фоули / Beverly Hills Cop: Axel F (2024) WEB-DLRip 1080p | D, P, P2, L, A 12.78 GB ↑ 0 ↓ 15
2024-07-15 magnet Полицейский из Беверли-Хиллз: Аксель Фоули / Beverly Hills Cop: Axel F (2024) WEB-DL 1080p от New-Team | D, P, P2, A 7.19 GB ↑ 0 ↓ 19
2024-07-13 magnet Полицейский из Беверли-Хиллз: Аксель Фоули / Beverly Hills Cop: Axel F (2024) WEB-DLRip-AVC от ExKinoRay | D 744.94 MB ↑ 1 ↓ 5
2024-07-12 magnet Полицейский из Беверли-Хиллз: Аксель Фоули / Beverly Hills Cop: Axel F (2024) UHD WEB-DL 2160p | 4K | HDR | Dolby Vision Profile 8 | D, P, A 12.09 GB ↑ 1 ↓ 3
2024-07-08 magnet Полицейский из Беверли-Хиллз: Аксель Фоули / Beverly Hills Cop: Axel F (2024) WEB-DL 1080p от селезень | D, P | Videofilm Int., TVShows 5.50 GB ↑ 1 ↓ 1
2024-07-08 magnet Полицейский из Беверли-Хиллз: Аксель Фоули / Beverly Hills Cop: Axel F (2024) WEB-DLRip | P2 1.46 GB ↑ 0 ↓ 0

Комментарии


Зарегистрируйтесь чтобы добавить комментарий
Торрент клиент
byTorrent - программа для загрузки торрент-файлов.

Скачать byTorrent.exe (1,5 МБ)

Скачать byTorrent.zip (0,6 МБ)

Поддержи torrent.by
российских рублей
(300 российских рублей это 4$)

Обратная связь rss

End game ©