↑↓torrent.by
Поиск
Логин:  Регистрация
Пароль:

Нежданчик / Babes (2024) WEB-DL 1080p | L | RGB

download Скачать торрент-файл   magnet Магнитная ссылка Размер: 6.04 GB Добавлен: il68k 2024-07-03 17:54
Пиры будут получены из сети DHT
Последний сидер был замечен 2024-07-09 15:18
Информация о фильме Название: Нежданчик Оригинальное название: Babes Год выхода: 2024 Жанр: комедия Режиссер: Памела Адлон В ролях: Илана Глейзер, Мишель Бюто, Хасан Минхадж, Джон Кэрролл Линч, Стефан Джеймс, Оливер Платт, Елена Успенская, Кит Лукас, Кеннет Лукас, Джош Рабиновиц, Марио Полит О фильме: Иден — одинокая, немного легкомысленная девушка, обедает вместе со своей беременной замужней подругой Доун, когда у той неожиданно начинаются схватки. Иден помогает ей добраться до больницы и присутствует при рождении ее уже второго ребенка. А по пути домой неожиданно знакомится с симпатичным парнем, с которым решает переспать. Но эта внезапная связь на одну ночь имеет последствия: Иден беременеет. Более того, она решает оставить ребенка и обращается за помощью к опытной Доун, которая должна помочь ей справиться с незапланированной беременностью. Страна: США Студия: FilmNation Entertainment, Range Media Partners, Starrpix Продолжительность: 01:44:09 Перевод: Любительский (многоголосый закадровый) | RGB Файл Формат: MKV Качество: WEB-DL 1080p Видео: AVC/H.264, 1920x1040, ~7476 Kbps, 23.976 fps Аудио 1: 48 kHz, AC3, 2 ch, 192 Kbps | Русский Аудио 2: 48 kHz, E-AC3, 6 ch, ~640 kbps | Английский Субтитры: английские Семпл
[+] Скриншоты
[+] MediaInfo General Unique ID: 112339543359464334645169523537063542153 (0x5483CF1DDDD91EEBB6045CC85B717D89) Complete name: E:\RGB\Babes.2024.1080p.AMZN.WEB-DL.DDP5.1.H.264.MVO-BYNDR-RGB.mkv Format: Matroska Format version: Version 4 File size: 6.04 GiB Duration: 1 h 44 min Overall bit rate: 8 302 kb/s Frame rate: 23.976 FPS Movie name: RGB Encoded date: 2024-07-03 04:43:04 UTC Writing application: mkvmerge v82.0 ('I'm The President') 64-bit Writing library: libebml v1.4.5 + libmatroska v1.7.1 Video ID: 1 Format: AVC Format/Info: Advanced Video Codec Format profile: High@L4 Format settings: CABAC / 4 Ref Frames Format settings, CABAC: Yes Format settings, Reference: 4 frames Codec ID: V_MPEG4/ISO/AVC Duration: 1 h 44 min Bit rate mode: Constant Bit rate: 7 476 kb/s Nominal bit rate: 10 000 kb/s Width: 1 920 pixels Height: 1 040 pixels Display aspect ratio: 1.85:1 Frame rate mode: Constant Frame rate: 23.976 (24000/1001) FPS Color space: YUV Chroma subsampling: 4:2:0 Bit depth: 8 bits Scan type: Progressive Bits/(Pixel*Frame): 0.156 Stream size: 5.44 GiB (90%) Language: English Default: Yes Forced: No Color range: Limited Color primaries: BT.709 Transfer characteristics: BT.709 Matrix coefficients: BT.709 Audio #1 ID: 2 Format: AC-3 Format/Info: Audio Coding 3 Commercial name: Dolby Digital Codec ID: A_AC3 Duration: 1 h 39 min Bit rate mode: Constant Bit rate: 192 kb/s Channel(s): 2 channels Channel layout: L R Sampling rate: 48.0 kHz Frame rate: 31.250 FPS (1536 SPF) Compression mode: Lossy Stream size: 137 MiB (2%) Title: MVO Language: Russian Service kind: Complete Main Default: Yes Forced: No Dialog Normalization: -31 dB compr: -0.28 dB mixlevel: 285 dB roomtyp: 3 ltrtcmixlev: -3.0 dB ltrtsurmixlev: -3.0 dB lorocmixlev: -3.0 dB lorosurmixlev: -3.0 dB dialnorm_Average: -31 dB dialnorm_Minimum: -31 dB dialnorm_Maximum: -31 dB Audio #2 ID: 3 Format: E-AC-3 Format/Info: Enhanced AC-3 Commercial name: Dolby Digital Plus Codec ID: A_EAC3 Duration: 1 h 44 min Bit rate mode: Constant Bit rate: 640 kb/s Channel(s): 6 channels Channel layout: L R C LFE Ls Rs Sampling rate: 48.0 kHz Frame rate: 31.250 FPS (1536 SPF) Compression mode: Lossy Stream size: 477 MiB (8%) Title: Original Language: English Service kind: Complete Main Default: No Forced: No Dialog Normalization: -31 dB compr: -0.28 dB dialnorm_Average: -31 dB dialnorm_Minimum: -31 dB dialnorm_Maximum: -31 dB Text ID: 4 Format: UTF-8 Codec ID: S_TEXT/UTF8 Codec ID/Info: UTF-8 Plain Text Duration: 1 h 38 min Bit rate: 84 b/s Frame rate: 0.305 FPS Count of elements: 1799 Stream size: 61.0 KiB (0%) Language: English Default: No Forced: No Menu 00:00:00.000: en:Scene 01 01:44:04.000: en:End Credits
Релиз от: RGB

Всего файлов в раздаче: 1 
Babes.2024.1080p.AMZN.WEB-DL.DDP5.1.H.264.MVO-BYNDR-RGB.mkv6.04 GB

Похожие раздачи по запросу - Нежданчик
2024-07-07 magnet Нежданчик / Babes (2024) WEB-DLRip-AVC | L | RGB 1.62 GB ↑ 1 ↓ 0
2024-07-03 magnet Нежданчик / Babes (2024) WEB-DLRip-AVC | L | RGB 1.50 GB ↑ 5 ↓ 0

Комментарии


Зарегистрируйтесь чтобы добавить комментарий
Торрент клиент
byTorrent - программа для загрузки торрент-файлов.

Скачать byTorrent.exe (1,5 МБ)

Скачать byTorrent.zip (0,6 МБ)

Поддержи torrent.by
российских рублей
(300 российских рублей это 4$)

Обратная связь rss

End game ©