↑↓torrent.by
Поиск
Логин:  Регистрация
Пароль:

И снова здравствуйте! [03x01 из 10] (2024) WEB-DL 1080p от ExKinoRay

download Скачать торрент-файл   magnet Магнитная ссылка Размер: 1.18 GB Добавлен: 2024-07-04 05:00
Пиры будут получены из сети DHT
Последний сидер был замечен 2024-07-08 00:42
Информация о фильме Название: И снова здравствуйте! Год выхода: 2024 Жанр: Комедия, криминал Режиссер: Егор Чичканов В ролях: Андрей Мерзликин, Денис Власенко, Павел Чинарёв, Любовь Толкалина, Николай Наумов, Полина Гухман, Влад Фельдман, Антон Лунин, Сергей Годин, Татьяна Струженкова, Кирилл Жандаров, Дмитрий Журавлёв (IV), Михаил Полицеймако, Сергей Епишев, Игорь Грабузов, Никита Дювбанов, Евгений Сангаджиев О фильме: В предстоящем сезоне Борис начнет новую жизнь со своей семьей, поменяет имя и откроет долгожданную кондитерскую, но вот только счастья она ему не принесет. Герой ностальгирует о былых опасных временах, тем более, что бандитское прошлое, кажется, тоже не может его отпустить. Новый бизнес, как бельмо на глазу Гоши и его хладнокровной и жестокой матери, которая вернулась в страну налаживать дела. Теперь двум злейшим врагам Коле и Борису, придется объединиться, чтобы победить Гошу и его маму. Страна: Россия Студия: Кинопоиск, Медиаслово Продолжительность: 1 x ~ 00:30:00 Язык: Русский Реклама: Отсутствует Файл Формат: MKV Качество: WEB-DL 1080p Видео: MPEG-4 AVC, ~ 5120 Кбит/с, 1920x1080, 25 кадр/с Аудио №1: Русский, АC3, 6 ch, 448 Кбит/с RUS Аудио №2: Русский, E-AC3, 6 ch, 448 Кбит/с Субтитры: Русские (full, SDH)
[+] МИ General Unique ID : 119121733092684324791990308910540464689 (0x599E02E32F10E338A6248CEDD3272231) Complete name : G:I.snova.zdravstvujte.S03.2024.WEB-DL.1080p.ExKinoRayI.snova.zdravstvujte.S03.E01.2024.WEB-DL.1080p.ExKinoRay.mkv Format : Matroska Format version : Version 4 File size : 1.18 GiB Duration : 28 min 9 s Overall bit rate : 6 019 kb/s Encoded date : UTC 2024-07-03 22:26:05 Writing application : mkvmerge v56.1.0 ('My Friend') 64-bit Writing library : libebml v1.4.2 + libmatroska v1.6.4 Video ID : 1 Format : AVC Format/Info : Advanced Video Codec Format profile : High@L4 Format settings : CABAC / 4 Ref Frames Format settings, CABAC : Yes Format settings, Reference frames : 4 frames Codec ID : V_MPEG4/ISO/AVC Duration : 28 min 9 s Bit rate : 5 120 kb/s Width : 1 920 pixels Height : 804 pixels Display aspect ratio : 2.40:1 Frame rate mode : Constant Frame rate : 25.000 FPS Color space : YUV Chroma subsampling : 4:2:0 Bit depth : 8 bits Scan type : Progressive Bits/(Pixel*Frame) : 0.133 Stream size : 1.01 GiB (85%) Writing library : x264 core 152 r2854 e9a5903 Encoding settings : cabac=1 / ref=3 / deblock=1:0:0 / analyse=0x3:0x113 / me=hex / subme=7 / psy=1 / psy_rd=1.00:0.00 / mixed_ref=1 / me_range=16 / chroma_me=1 / trellis=1 / 8x8dct=1 / cqm=0 / deadzone=21,11 / fast_pskip=1 / chroma_qp_offset=-2 / threads=25 / lookahead_threads=4 / sliced_threads=0 / nr=0 / decimate=1 / interlaced=0 / bluray_compat=0 / constrained_intra=0 / bframes=6 / b_pyramid=2 / b_adapt=1 / b_bias=0 / direct=1 / weightb=1 / open_gop=0 / weightp=2 / keyint=50 / keyint_min=26 / scenecut=0 / intra_refresh=0 / rc_lookahead=40 / rc=2pass / mbtree=1 / bitrate=5120 / ratetol=1.0 / qcomp=0.60 / qpmin=0 / qpmax=69 / qpstep=4 / cplxblur=20.0 / qblur=0.5 / vbv_maxrate=7680 / vbv_bufsize=20480 / nal_hrd=none / filler=0 / ip_ratio=1.40 / aq=1:1.00 Language : Russian Default : Yes Forced : No Audio #1 ID : 2 Format : AC-3 Format/Info : Audio Coding 3 Commercial name : Dolby Digital Codec ID : A_AC3 Duration : 28 min 9 s Bit rate mode : Constant Bit rate : 448 kb/s Channel(s) : 6 channels Channel layout : L R C LFE Ls Rs Sampling rate : 48.0 kHz Frame rate : 31.250 FPS (1536 SPF) Compression mode : Lossy Stream size : 90.2 MiB (7%) Title : 5.1 Language : Russian Service kind : Complete Main Default : Yes Forced : No Audio #2 ID : 3 Format : E-AC-3 Format/Info : Enhanced AC-3 Commercial name : Dolby Digital Plus Codec ID : A_EAC3 Duration : 28 min 9 s Bit rate mode : Constant Bit rate : 448 kb/s Channel(s) : 6 channels Channel layout : L R C LFE Ls Rs Sampling rate : 48.0 kHz Frame rate : 31.250 FPS (1536 SPF) Bit depth : 32 bits Compression mode : Lossy Stream size : 90.2 MiB (7%) Title : "Русский 5.1" Language : Russian Service kind : Complete Main Default : No Forced : No Text ID : 4 Format : UTF-8 Codec ID : S_TEXT/UTF8 Codec ID/Info : UTF-8 Plain Text Duration : 24 min 29 s Bit rate : 114 b/s Frame rate : 0.234 FPS Count of elements : 344 Stream size : 20.5 KiB (0%) Language : Russian Default : No Forced : No
[+] Скриншоты
Релиз от:

Всего файлов в раздаче: 1 
I.snova.zdravstvujte.S03.E01.2024.WEB-DL.1080p.ExKinoRay.mkv1.18 GB

Похожие раздачи по запросу - снова
Сегодня magnet И снова здравствуйте!! [03x01-03 из 10] (2024) WEB-DL-HEVC 2160p от ExKinoRay | 4K | HDR 9.76 GB ↑ 0 ↓ 0
Сегодня magnet И снова здравствуйте!! [03x01-03 из 10] (2024) WEB-DL-HEVC 2160p от ExKinoRay | 4K | SDR 9.77 GB ↑ 0 ↓ 0
2024-07-20 magnet И снова здравствуйте! [03х01-03 из 10] (2024) WEB-DLRip от Files-x 1.04 GB ↑ 0 ↓ 1
2024-07-18 magnet И снова здравствуйте! [03x01-03 из 10] (2024) WEB-DL 1080p от ExKinoRay 3.24 GB ↑ 0 ↓ 0
2024-07-18 magnet И снова здравствуйте! [03x01-03 из 10] (2024) WEBRip-HEVC 1440p от ExKinoRay | SDR 2.97 GB ↑ 0 ↓ 0
2024-07-14 magnet И снова здравствуйте! [03х01-02 из 10] (2024) WEB-DLRip-AVC от Generalfilm | КПК 246.72 MB ↑ 0 ↓ 0
2024-07-12 magnet И снова здравствуйте! [03х01-02 из 10] (2024) WEB-DLRip от Files-x 765.53 MB ↑ 0 ↓ 0

Комментарии


Зарегистрируйтесь чтобы добавить комментарий
Торрент клиент
byTorrent - программа для загрузки торрент-файлов.

Скачать byTorrent.exe (1,5 МБ)

Скачать byTorrent.zip (0,6 МБ)

Поддержи torrent.by
российских рублей
(300 российских рублей это 4$)

Обратная связь rss

End game ©