↑↓torrent.by
Поиск
Логин:  Регистрация
Пароль:

Мальчик и птица / Kimitachi wa Dou Ikiru ka (2023) WEBRip-HEVC 2160p от FortunaTV | 4K | SDR | D | StudioBand, CPI Films

download Скачать торрент-файл   magnet Магнитная ссылка Размер: 6.73 GB Раздают: 0 Качают: 1 Добавлен: 2024-07-04 05:00
Пиры будут получены из сети DHT
Последний сидер был замечен 2024-07-05 12:19
Информация о фильме Название: Мальчик и птица Оригинальное название: Kimitachi wa Dou Ikiru ka Год выхода: 2023 Жанр: приключения, драма, фэнтези Режиссер: Хаяо Миядзаки Возрастное ограничение: 18+ (Кинопоиск), 13+ (MPAA) О фильме: Через три года после начала Тихоокеанской войны мама мальчика Махито погибла при пожаре в Токио, а ещё через год отец женился на её сестре и отправил сына в фамильное поместье в сельской местности. Глава семьи работает на оборонном заводе и редко бывает дома, поэтому мальчику приходится проводить дни с беременной мачехой и в окружении пожилой прислуги, и, кроме того, с самого первого дня его донимает подозрительная серая цапля. Однажды птица говорит Махито, что может отвести его к матери, и заманивает в загадочную башню, которую окружает множество местных легенд. Страна: Япония Продолжительность: 02:03:49 Перевод: Дублированный (профессиональный) | StudioBand Дублированный (профессиональный) | CPI Films Файл Формат: MKV Кодек: HEVC Качество: WEBRip 2160p | KP Видео: 3840x2074, ~ 5 853 kb/s, 24.000 FPS. 8 bits Аудио (русский): A_EAC3, ~ 448 kb/s, 6 channels, 48.0 kHz | CPI Films Аудио (русский): A_EAC3, ~ 448 kb/s, 6 channels, 48.0 kHz | StudioBand Аудио (японский): A_EAC3, ~ 448 kb/s, 6 channels, 48.0 kHz | Оригинал Аудио (русский): AAC, ~ 192 kb/s, 2 channels, 48.0 kHz | CPI Films Аудио (русский): AAC, ~ 192 kb/s, 2 channels, 48.0 kHz | StudioBand Аудио (японский): FLAC, ~ 192 kb/s, 2 channels, 48.0 kH | Оригинал Субтитры: Русские (полные, на надписи) Релиз от:
[+] MediaInfo General Unique ID : 93171564469544914612470675928156862709 (0x461830CB034A124D63768852786DF8F5) Complete name : Kimitachi wa Dou Ikiru ka (WEB-DL 3840x2074 HEVC Rus + Jap).mkv Format : Matroska Format version : Version 4 File size : 6.73 GiB Duration : 2 h 3 min Overall bit rate : 7 786 kb/s Frame rate : 24.000 FPS Encoded date : 2024-07-03 21:20:26 UTC Writing application : mkvmerge v63.0.0 ('Everything') 64-bit Writing library : libebml v1.4.2 + libmatroska v1.6.4 / Lavf60.3.100 Video ID : 1 Format : HEVC Format/Info : High Efficiency Video Coding Format profile : Main@L5@High Codec ID : V_MPEGH/ISO/HEVC Duration : 2 h 3 min Bit rate : 5 853 kb/s Width : 3 840 pixels Height : 2 074 pixels Display aspect ratio : 1.85:1 Frame rate mode : Constant Frame rate : 24.000 FPS Color space : YUV Chroma subsampling : 4:2:0 Bit depth : 8 bits Bits/(Pixel*Frame) : 0.031 Stream size : 5.06 GiB (75%) Title : FortunaTV Writing library : x265 3.5: 8bit+10bit Encoding settings : cpuid=1111039 / frame-threads=6 / wpp / no-pmode / no-pme / no-psnr / no-ssim / log-level=2 / input-csp=1 / input-res=3840x2074 / interlace=0 / total-frames=0 / level-idc=50 / high-tier=1 / uhd-bd=0 / ref=2 / no-allow-non-conformance / no-repeat-headers / annexb / no-aud / no-hrd / info / hash=0 / no-temporal-layers / open-gop / min-keyint=1 / keyint=96 / gop-lookahead=0 / bframes=4 / b-adapt=2 / b-pyramid / bframe-bias=0 / rc-lookahead=96 / lookahead-slices=4 / scenecut=40 / hist-scenecut=0 / radl=0 / no-splice / no-intra-refresh / ctu=64 / min-cu-size=8 / rect / no-amp / max-tu-size=32 / tu-inter-depth=1 / tu-intra-depth=1 / limit-tu=0 / rdoq-level=2 / dynamic-rd=0.00 / no-ssim-rd / signhide / no-tskip / nr-intra=0 / nr-inter=0 / no-constrained-intra / strong-intra-smoothing / max-merge=3 / limit-refs=3 / limit-modes / me=3 / subme=3 / merange=57 / temporal-mvp / no-frame-dup / no-hme / weightp / no-weightb / no-analyze-src-pics / deblock=0:0 / sao / no-sao-non-deblock / rd=4 / selective-sao=4 / no-early-skip / rskip / no-fast-intra / no-tskip-fast / no-cu-lossless / no-b-intra / no-splitrd-skip / rdpenalty=0 / psy-rd=2.00 / psy-rdoq=1.00 / no-rd-refine / no-lossless / cbqpoffs=0 / crqpoffs=0 / rc=crf / crf=18.9 / qcomp=0.60 / qpstep=4 / stats-write=0 / stats-read=0 / vbv-maxrate=100000 / vbv-bufsize=100000 / vbv-init=0.9 / min-vbv-fullness=50.0 / max-vbv-fullness=80.0 / crf-max=0.0 / crf-min=0.0 / ipratio=1.40 / pbratio=1.30 / aq-mode=2 / aq-strength=1.00 / cutree / zone-count=0 / no-strict-cbr / qg-size=32 / no-rc-grain / qpmax=69 / qpmin=0 / no-const-vbv / sar=1 / overscan=0 / videoformat=5 / range=0 / colorprim=2 / transfer=2 / colormatrix=2 / chromaloc=0 / display-window=0 / cll=0,0 / min-luma=0 / max-luma=255 / log2-max-poc-lsb=8 / vui-timing-info / vui-hrd-info / slices=1 / no-opt-qp-pps / no-opt-ref-list-length-pps / no-multi-pass-opt-rps / scenecut-bias=0.05 / hist-threshold=0.03 / no-opt-cu-delta-qp / no-aq-motion / no-hdr10 / no-hdr10-opt / no-dhdr10-opt / no-idr-recovery-sei / analysis-reuse-level=0 / analysis-save-reuse-level=0 / analysis-load-reuse-level=0 / scale-factor=0 / refine-intra=0 / refine-inter=0 / refine-mv=1 / refine-ctu-distortion=0 / no-limit-sao / ctu-info=0 / no-lowpass-dct / refine-analysis-type=0 / copy-pic=1 / max-ausize-factor=1.0 / no-dynamic-refine / no-single-sei / no-hevc-aq / no-svt / no-field / qp-adaptation-range=1.00 / scenecut-aware-qp=0conformance-window-offsets / right=0 / bottom=0 / decoder-max-rate=0 / no-vbv-live-multi-pass Default : Yes Forced : No Color range : Limited Audio #1 ID : 2 Format : E-AC-3 Format/Info : Enhanced AC-3 Commercial name : Dolby Digital Plus Codec ID : A_EAC3 Duration : 2 h 3 min Bit rate mode : Constant Bit rate : 448 kb/s Channel(s) : 6 channels Channel layout : L R C LFE Ls Rs Sampling rate : 48.0 kHz Frame rate : 31.250 FPS (1536 SPF) Bit depth : 32 bits Compression mode : Lossy Stream size : 397 MiB (6%) Title : 5.1 (CPI Films) Language : Russian Service kind : Complete Main Default : Yes Forced : No Dialog Normalization : -23 dB compr : -0.28 dB dmixmod : Lo/Ro ltrtcmixlev : -3.0 dB ltrtsurmixlev : -3.0 dB lorocmixlev : -3.0 dB lorosurmixlev : -3.0 dB dialnorm_Average : -23 dB dialnorm_Minimum : -23 dB dialnorm_Maximum : -23 dB Audio #2 ID : 3 Format : E-AC-3 Format/Info : Enhanced AC-3 Commercial name : Dolby Digital Plus Codec ID : A_EAC3 Duration : 2 h 3 min Bit rate mode : Constant Bit rate : 448 kb/s Channel(s) : 6 channels Channel layout : L R C LFE Ls Rs Sampling rate : 48.0 kHz Frame rate : 31.250 FPS (1536 SPF) Bit depth : 32 bits Compression mode : Lossy Stream size : 397 MiB (6%) Title : 5.1 (Студийная Банда) Language : Russian Service kind : Complete Main Default : Yes Forced : No Dialog Normalization : -23 dB compr : -0.28 dB dmixmod : Lo/Ro ltrtcmixlev : -3.0 dB ltrtsurmixlev : -3.0 dB lorocmixlev : -3.0 dB lorosurmixlev : -3.0 dB dialnorm_Average : -23 dB dialnorm_Minimum : -23 dB dialnorm_Maximum : -23 dB Audio #3 ID : 4 Format : E-AC-3 Format/Info : Enhanced AC-3 Commercial name : Dolby Digital Plus Codec ID : A_EAC3 Duration : 2 h 3 min Bit rate mode : Constant Bit rate : 448 kb/s Channel(s) : 6 channels Channel layout : L R C LFE Ls Rs Sampling rate : 48.0 kHz Frame rate : 31.250 FPS (1536 SPF) Bit depth : 32 bits Compression mode : Lossy Stream size : 397 MiB (6%) Title : Японский 5.1 Language : Japanese Service kind : Complete Main Default : Yes Forced : No Dialog Normalization : -23 dB compr : -0.28 dB dmixmod : Lo/Ro ltrtcmixlev : -3.0 dB ltrtsurmixlev : -3.0 dB lorocmixlev : -3.0 dB lorosurmixlev : -3.0 dB dialnorm_Average : -23 dB dialnorm_Minimum : -23 dB dialnorm_Maximum : -23 dB Audio #4 ID : 5 Format : AAC LC Format/Info : Advanced Audio Codec Low Complexity Codec ID : A_AAC-2 Duration : 2 h 3 min Bit rate : 192 kb/s Channel(s) : 2 channels Channel layout : L R Sampling rate : 48.0 kHz Frame rate : 46.875 FPS (1024 SPF) Compression mode : Lossy Stream size : 173 MiB (3%) Title : 2.0 (CPI Films) Language : Russian Default : Yes Forced : No Audio #5 ID : 6 Format : AAC LC Format/Info : Advanced Audio Codec Low Complexity Codec ID : A_AAC-2 Duration : 2 h 3 min Bit rate : 192 kb/s Channel(s) : 2 channels Channel layout : L R Sampling rate : 48.0 kHz Frame rate : 46.875 FPS (1024 SPF) Compression mode : Lossy Stream size : 172 MiB (2%) Title : 2.0 (Студийная Банда) Language : Russian Default : Yes Forced : No Audio #6 ID : 7 Format : AAC LC Format/Info : Advanced Audio Codec Low Complexity Codec ID : A_AAC-2 Duration : 2 h 3 min Bit rate : 192 kb/s Channel(s) : 2 channels Channel layout : L R Sampling rate : 48.0 kHz Frame rate : 46.875 FPS (1024 SPF) Compression mode : Lossy Stream size : 172 MiB (2%) Title : 2.0 Японский Language : Japanese Default : Yes Forced : No Text #1 ID : 8 Format : UTF-8 Codec ID : S_TEXT/UTF8 Codec ID/Info : UTF-8 Plain Text Duration : 2 h 0 min Bit rate : 3 b/s Frame rate : 0.006 FPS Count of elements : 40 Stream size : 2.84 KiB (0%) Title : Русские (форсированные) Language : Russian Default : Yes Forced : No Text #2 ID : 9 Format : UTF-8 Codec ID : S_TEXT/UTF8 Codec ID/Info : UTF-8 Plain Text Duration : 2 h 2 min Bit rate : 48 b/s Frame rate : 0.122 FPS Count of elements : 897 Stream size : 43.3 KiB (0%) Title : Русские Language : Russian Default : No Forced : No
[+] Скриншоты
Приятного просмотра.

Всего файлов в раздаче: 1 
[FortunaTV] Kimitachi wa Dou Ikiru ka (WEB-DL 3840x2074 HEVC Rus + Jap).mkv6.73 GB

Похожие раздачи по запросу - Мальчик
2024-07-13 magnet Мальчик и птица / Kimitachi Wa Dou Ikiru Ka / The Boy And The Heron (2023) BDRip 1080p от Generalfilm | D 6.62 GB ↑ 0 ↓ 0
2024-07-11 magnet Мальчик и птица / Kimitachi Wa Dou Ikiru Ka / The Boy And The Heron (2023) BDRemux 1080p | D, A 27.85 GB ↑ 0 ↓ 0
2024-07-09 magnet Мальчик и птица / Kimitachi Wa Dou Ikiru Ka / The Boy And The Heron (2023) BDRip 1080p | D 10.00 GB ↑ 0 ↓ 0
2024-07-08 magnet Мальчик и птица / Kimitachi Wa Dou Ikiru Ka / The Boy And The Heron (2023) UHD BDRemux 2160p | 4K | HDR | Dolby Vision Profile 7 | D 79.81 GB ↑ 0 ↓ 0
2024-07-08 magnet Мальчик и птица / Kimitachi Wa Dou Ikiru Ka / The Boy And The Heron (2023) BDRip-AVC от ExKinoRay | D 1.08 GB ↑ 0 ↓ 0
2024-07-08 magnet Мальчик и птица / Kimitachi Wa Dou Ikiru Ka / The Boy And The Heron (2023) BDRemux 1080p | D 27.18 GB ↑ 0 ↓ 0
2024-07-07 magnet Мальчик и птица / Kimitachi Wa Dou Ikiru Ka / The Boy And The Heron (2023) BDRemux 1080p | D 27.18 GB ↑ 0 ↓ 1

Комментарии


Зарегистрируйтесь чтобы добавить комментарий
Торрент клиент
byTorrent - программа для загрузки торрент-файлов.

Скачать byTorrent.exe (1,5 МБ)

Скачать byTorrent.zip (0,6 МБ)

Поддержи torrent.by
российских рублей
(300 российских рублей это 4$)

Обратная связь rss

End game ©