↑↓torrent.by
Поиск
Логин:  Регистрация
Пароль:

Кунг-фу Панда 4 / Kung Fu Panda 4 (2024) UHD BDRemux 2160p | 4K | HDR | Dolby Vision Profile 7 | D | UKR

download Скачать торрент-файл   magnet Магнитная ссылка Размер: 43.53 GB Добавлен: 2024-07-04 05:00
Пиры будут получены из сети DHT
Последний сидер был замечен 2024-07-04 05:00
Информация о фильме Название: Кунг-фу Панда 4 Оригинальное название: Kung Fu Panda 4 Год выхода: 2024 Жанр: мультфильм, фэнтези, боевик, комедия, приключения, семейный Режиссер: Майк Митчелл, Стефани Стайн В ролях: Джек Блэк, Аквафина, Виола Дэвис, Дастин Хоффман, Брайан Крэнстон, Джеймс Хун, Иэн Макшейн, Ке Хюи Куан, Ронни Чиэн, Лори Тань Чинн О фильме: Продолжение приключений легендарного воина По, его верных друзей и наставника. Страна: США, Китай Продолжительность: 01:33:39 Перевод: Дублированный | Le Doyen (Украинский) Файл Кодек: H.265 Качество: BDRemux 2160p Видео: HEVC, HDR10, Dolby Vision Profile 7, 3840x2160 (16:9), 23.976 fps, 62,1 Mb/s Аудио 1: E-AC3, 48.0 kHz, 6 ch, 576 kb/s | UKR Аудио 2: TrueHD, 48.0 kHz, 8 ch, 3093 kb/s | ENG Аудио 3: AC3, 48.0 kHz, 6 ch, 448 kb/s | ENG Аудио 4: AC3, 48.0 kHz, 2 ch, 192 kb/s | Commentary | ENG Субтитры: украинские (full), английские (full, SDH)
[+] MIGeneral Unique ID : 20492521143701558564291914407539442157 (0xF6AB74C7992ED2DB8F2BE9F244501ED) Complete name : Kung Fu Panda 4 (2024) BDRemux 2160p HDR DV P7 Ukr Eng .mkv Format : Matroska Format version : Version 4 File size : 43.5 GiB Duration : 1 h 33 min Overall bit rate mode : Variable Overall bit rate : 66.5 Mb/s Movie name : Kung Fu Panda 4 (2024) Encoded date : UTC 2024-06-28 17:32:45 Writing application : mkvmerge v85.0 ('Shame For You') 64-bit Writing library : libebml v1.4.5 + libmatroska v1.7.1 Cover : Yes Attachments : Cover.jpg Video ID : 1 ID in the original source medium : 4113 (0x1011) Format : HEVC Format/Info : High Efficiency Video Coding Format profile : Main 10@L5.1@High HDR format : Dolby Vision, Version 1.0, dvhe.07.06, BL+EL+RPU, Blu-ray compatible / SMPTE ST 2086, HDR10 compatible Codec ID : V_MPEGH/ISO/HEVC Duration : 1 h 33 min Bit rate : 62.1 Mb/s Width : 3 840 pixels Height : 2 160 pixels Display aspect ratio : 16:9 Frame rate mode : Constant Frame rate : 23.976 (24000/1001) FPS Color space : YUV Chroma subsampling : 4:2:0 (Type 2) Bit depth : 10 bits Bits/(Pixel*Frame) : 0.312 Stream size : 40.6 GiB (93%) Default : Yes Forced : No Color range : Limited Color primaries : BT.2020 Transfer characteristics : PQ Matrix coefficients : BT.2020 non-constant Mastering display color primaries : Display P3 Mastering display luminance : min: 0.0050 cd/m2, max: 4000 cd/m2 Maximum Content Light Level : 1000 cd/m2 Maximum Frame-Average Light Level : 364 cd/m2 Original source medium : Blu-ray Audio #1 ID : 2 Format : E-AC-3 Format/Info : Enhanced AC-3 Commercial name : Dolby Digital Plus Codec ID : A_EAC3 Duration : 1 h 33 min Bit rate mode : Constant Bit rate : 576 kb/s Channel(s) : 6 channels Channel layout : L R C LFE Ls Rs Sampling rate : 48.0 kHz Frame rate : 31.250 FPS (1536 SPF) Compression mode : Lossy Stream size : 386 MiB (1%) Title : DUB (Le Doyen) Language : Ukrainian Service kind : Complete Main Default : Yes Forced : No Audio #2 ID : 3 ID in the original source medium : 4352 (0x1100) Format : MLP FBA 16-ch Format/Info : Meridian Lossless Packing FBA with 16-channel presentation Commercial name : Dolby TrueHD with Dolby Atmos Codec ID : A_TRUEHD Duration : 1 h 33 min Bit rate mode : Variable Bit rate : 3 093 kb/s Maximum bit rate : 4 794 kb/s Channel(s) : 8 channels Channel layout : L R C LFE Ls Rs Lb Rb Sampling rate : 48.0 kHz Frame rate : 1 200.000 FPS (40 SPF) Compression mode : Lossless Stream size : 2.02 GiB (5%) Title : Original Language : English Default : No Forced : No Original source medium : Blu-ray Number of dynamic objects : 13 Bed channel count : 1 channel Bed channel configuration : LFE Audio #3 ID : 4 ID in the original source medium : 4352 (0x1100) Format : AC-3 Format/Info : Audio Coding 3 Commercial name : Dolby Digital Codec ID : A_AC3 Duration : 1 h 33 min Bit rate mode : Constant Bit rate : 448 kb/s Channel(s) : 6 channels Channel layout : L R C LFE Ls Rs Sampling rate : 48.0 kHz Frame rate : 31.250 FPS (1536 SPF) Compression mode : Lossy Stream size : 300 MiB (1%) Title : Original Language : English Service kind : Complete Main Default : No Forced : No Original source medium : Blu-ray Audio #4 ID : 5 Format : AC-3 Format/Info : Audio Coding 3 Commercial name : Dolby Digital Codec ID : A_AC3 Duration : 1 h 33 min Bit rate mode : Constant Bit rate : 192 kb/s Channel(s) : 2 channels Channel layout : L R Sampling rate : 48.0 kHz Frame rate : 31.250 FPS (1536 SPF) Compression mode : Lossy Stream size : 129 MiB (0%) Title : Commentary with Director Mike Mitchell, Co-Director Stephanie Stine, Production Designer Paul Duncan, Head of Character Animation Sean Sexton, and Head of Story Calvin Tsang Language : English Service kind : Complete Main Default : No Forced : No Text #1 ID : 6 Format : UTF-8 Codec ID : S_TEXT/UTF8 Codec ID/Info : UTF-8 Plain Text Duration : 1 h 32 min Bit rate : 93 b/s Count of elements : 1265 Stream size : 62.9 KiB (0%) Title : Full Language : Ukrainian Default : No Forced : No Text #2 ID : 7 Format : UTF-8 Codec ID : S_TEXT/UTF8 Codec ID/Info : UTF-8 Plain Text Duration : 1 h 26 min Bit rate : 69 b/s Count of elements : 1361 Stream size : 43.7 KiB (0%) Title : Full Language : English Default : No Forced : No Text #3 ID : 8 Format : UTF-8 Codec ID : S_TEXT/UTF8 Codec ID/Info : UTF-8 Plain Text Duration : 1 h 26 min Bit rate : 79 b/s Count of elements : 1697 Stream size : 50.7 KiB (0%) Title : SDH Language : English Default : No Forced : No Text #4 ID : 9 Format : PGS Codec ID : S_HDMV/PGS Codec ID/Info : Picture based subtitle format used on BDs/HD-DVDs Duration : 1 h 26 min Bit rate : 56.0 kb/s Count of elements : 3398 Stream size : 34.9 MiB (0%) Title : SDH Language : English Default : No Forced : No Menu 00:00:00.000 : en:Chapter 01 00:04:18.800 : en:Chapter 02 00:09:04.043 : en:Chapter 03 00:12:24.911 : en:Chapter 04 00:16:55.139 : en:Chapter 05 00:20:54.879 : en:Chapter 06 00:25:59.558 : en:Chapter 07 00:31:00.400 : en:Chapter 08 00:35:24.789 : en:Chapter 09 00:40:16.706 : en:Chapter 10 00:44:23.661 : en:Chapter 11 00:50:42.873 : en:Chapter 12 00:55:15.938 : en:Chapter 13 01:00:46.142 : en:Chapter 14 01:04:06.593 : en:Chapter 15 01:08:40.825 : en:Chapter 16 01:12:17.416 : en:Chapter 17 01:17:06.705 : en:Chapter 18 01:22:26.233 : en:Chapter 19 01:24:48.166 : en:Chapter 20 01:33:38.363 : en:Chapter 21
[+] Скриншоты

Всего файлов в раздаче: 1 
Kung Fu Panda 4 (2024) BDRemux 2160p HDR DV P7 Ukr Eng [Hurtom].mkv43.53 GB

Похожие раздачи по запросу - Кунг-фу
Сегодня magnet Кунг-фу Панда 4 / Kung Fu Panda 4 (2024) BDRip 1080p от MegaPeer | D, P 7.03 GB ↑ 0 ↓ 0
Сегодня magnet Кунг-фу Панда 4 / Kung Fu Panda 4 (2024) BDRip от MegaPeer | D | Movie Dubbing 1.42 GB ↑ 0 ↓ 1
Сегодня magnet Кунг-фу Панда 4 / Kung Fu Panda 4 (2024) BDRemux 1080p | D, P 27.48 GB ↑ 0 ↓ 1
Вчера magnet Кунг-фу Панда 4 / Kung Fu Panda 4 (2024) BDRip 1080p от Generalfilm | D 5.19 GB ↑ 0 ↓ 0
Вчера magnet Кунг-фу Панда 4 / Kung Fu Panda 4 (2024) BDRip 1080p от DoMiNo & селезень | D | Movie Dubbing, Red Head Sound 7.50 GB ↑ 0 ↓ 1
Вчера magnet Кунг-фу Панда 4 / Kung Fu Panda 4 (2024) BDRip 720p от DoMiNo & селезень | D | Movie Dubbing, Red Head Sound 3.39 GB ↑ 0 ↓ 1
2024-07-11 magnet Кунг-фу Панда 4 / Kung Fu Panda 4 (2024) BDRemux 1080p | D, P 27.35 GB ↑ 0 ↓ 0

Комментарии


Зарегистрируйтесь чтобы добавить комментарий
Торрент клиент
byTorrent - программа для загрузки торрент-файлов.

Скачать byTorrent.exe (1,5 МБ)

Скачать byTorrent.zip (0,6 МБ)

Поддержи torrent.by
российских рублей
(300 российских рублей это 4$)

Обратная связь rss

End game ©