↑↓torrent.by
Поиск
Логин:  Регистрация
Пароль:

Смотрители / The Watchers (2024) WEB-DL 1080p | P | Red Head Sound

download Скачать торрент-файл   magnet Магнитная ссылка Размер: 4.81 GB Раздают: 0 Качают: 1 Добавлен: 2024-07-04 05:00
Пиры будут получены из сети DHT
Последний сидер был замечен вчера в 16:20
Название: Смотрители Оригинальное название: The Watchers Год выхода: 2024 Жанр: Ужасы, фэнтези, триллер, детектив, экранизация Режиссер: Ишана Шьямалан В ролях: Дакота Фэннинг, Джорджина Кэмпбелл, Оуэн Фойер, Оливер Финнеган, Алистер Браммер, Джон Линч, Шиван Хьюлетт, Ханна Дарган, Эмили Дарган, Джоэл Фигероа и др. Описание сериала: Мина оказывается посреди огромного непроходимого леса на западе Ирландии. Девушке удается найти убежище, но оно же становится ловушкой для нее и нескольких других людей. Каждую ночь таинственные незнакомцы собираются напротив их огромного панорамного окна и наблюдают за героями до восхода солнца. И, кажется, теперь наблюдатели особенно заинтересованы новенькой — Миной. Страна: Ирландия, США Студия: Blinding Edge Pictures, Inimitable Pictures, New Line Cinema Продолжительность: 01:41:42 Перевод: Профессиональный (многоголосый, закадровый) Red Head Sound Файл Формат: MKV Качество: WEB-DL (1080p) Видео: 1918x1036 (1,85:1), 24 fps, AVC (х264), High@L4, ~6580 Kbps avg, 0.138 bit/pixel Аудио RUS: 48 kHz, AC3, 2/0 (L,R) ch, ~192 kbps avg
[+] MediaInfoОбщее Уникальный идентификатор : 190439064838581358156232003446679898791 (0x8F453AD13F837B76F3FA1B5AFBB58AA7) Полное имя : The.Watchers.2024.1080p.RHS.mkv Формат : Matroska Версия формата : Version 4 Размер файла : 4,81 Гбайт Продолжительность : 1 ч. 41 мин. Общий битрейт : 6 774 Кбит/сек Частота кадров : 23,976 кадра/сек Дата кодирования : 2024-07-03 14:13:44 UTC Программа кодирования : mkvmerge v68.0.0 ('The Curtain') 64-bit Библиотека кодирования : libebml v1.4.2 + libmatroska v1.6.4 Видео Идентификатор : 1 Формат : AVC Формат/Информация : Advanced Video Codec Профиль формата : High@L4 Настройки формата : CABAC / 4 Ref Frames Параметр CABAC формата : Да Параметр RefFrames формата : 4 кадра Параметр формата, количество фрагментов : 8 фрагментов на кадр Идентификатор кодека : V_MPEG4/ISO/AVC Продолжительность : 1 ч. 41 мин. Битрейт : 6 580 Кбит/сек Ширина : 1 918 пикселей Высота : 1 036 пикселей Соотношение сторон дисплея : 1,85:1 Режим частоты кадров : Постоянный Частота кадров : 23,976 (24000/1001) кадра/сек Частота кадров в оригинале : 47,952 (48000/1001) кадров/сек Цветовое пространство : YUV Цветовая субдискретизация : 4:2:0 Битовая глубина : 8 бит Тип развёртки : Прогрессивная Бит/(Пиксели*Кадры) : 0.138 Размер потока : 4,67 Гбайт (97%) Язык : Английский По умолчанию : Да Принудительно : Нет Цветовой диапазон : Limited Основные цвета : BT.709 Характеристики трансфера : BT.709 Коэффициенты матрицы : BT.709 Аудио Идентификатор : 2 Формат : AC-3 Формат/Информация : Audio Coding 3 Коммерческое название : Dolby Digital Идентификатор кодека : A_AC3 Продолжительность : 1 ч. 41 мин. Вид битрейта : Постоянный Битрейт : 192 Кбит/сек Канал(-ы) : 2 канала Расположение каналов : L R Частота дискретизации : 48,0 КГц Частота кадров : 31,250 кадров/сек (1536 SPF) Метод сжатия : С потерями Размер потока : 140 Мбайт (3%) По умолчанию : Да Принудительно : Нет Нормализация звука речи : -31 dB dialnorm_Average : -31 dB dialnorm_Minimum : -31 dB dialnorm_Maximum : -31 dB
[+] Скриншоты

Всего файлов в раздаче: 1 
The.Watchers.2024.1080p.RHS.mkv4.81 GB

Похожие раздачи по запросу - Смотрители
2024-07-17 magnet Смотрители / The Watchers (2024) UHD WEB-DL-HEVC 2160p | 4K | HDR | D, P | Movie Dubbing, Red Head Sound, HDRezka Studio 18.48 GB ↑ 0 ↓ 3
2024-07-14 magnet Смотрители / The Watchers (2024) WEB-DL 720p от селезень | D, P | Movie Dubbing, HDrezka, Red Head Sound 2.66 GB ↑ 0 ↓ 1
2024-07-14 magnet Смотрители / The Watchers (2024) WEB-DLRip 1080p | D, P | Movie Dubbing, HDrezka, RHS 7.68 GB ↑ 0 ↓ 3
2024-07-03 magnet Смотрители / The Watchers (2024) WEB-DLRip-AVC | P | HDRezka Studio 1.50 GB ↑ 24 ↓ 1
2024-07-01 magnet Смотрители / The Watchers (2024) WEB-DL 720p от селезень | P | HDRezka Studio 2.11 GB ↑ 0 ↓ 0
2024-07-01 magnet Смотрители / The Watchers (2024) WEB-DLRip от DoMiNo & селезень | P | HDRezka Studio 1.37 GB ↑ 0 ↓ 0
2024-07-01 magnet Смотрители / The Watchers (2024) WEB-DLRip от AR-Team | P | HDRezka Studio 1.47 GB ↑ 0 ↓ 0

Комментарии


Зарегистрируйтесь чтобы добавить комментарий
Торрент клиент
byTorrent - программа для загрузки торрент-файлов.

Скачать byTorrent.exe (1,5 МБ)

Скачать byTorrent.zip (0,6 МБ)

Поддержи torrent.by
российских рублей
(300 российских рублей это 4$)

Обратная связь rss

End game ©