↑↓torrent.by
Поиск
Логин:  Регистрация
Пароль:

Клетка / The Cage – Nella gabbia (2023) WEB-DLRip-AVC | L | Синема УС

download Скачать торрент-файл   magnet Магнитная ссылка Размер: 1.71 GB Добавлен: il68k 2024-07-04 10:01
Пиры будут получены из сети DHT
Последний сидер был замечен сегодня в 01:58
Информация о фильме Название: Клетка Оригинальное название: The Cage – Nella gabbia Год выхода: 2023 Жанр: драма, боевик, спорт Режиссер: Массимилиано Занин В ролях: Аврора Джовинаццо, Брандо Пачитто, Алессио Сакара, Дезире Поппер, Патрицио Олива, Патрицио Олива, Марко Факкини О фильме: Джулия, восходящая звезда ММА, бросила борьбу после трагического несчастного случая, но теперь мечтает вернуться в октагон. Когда она вновь начинает заниматься ММА, отношения с Алессандро дают трещину, а тренер Серена помогает ей вырваться из клетки, в которую превратилась ее жизнь. Страна: Италия Студия: Rai Cinema, Rodeo Drive, Wave Cinema Продолжительность: 01:48:16 Перевод: Любительский (многоголосый закадровый) | Синема УС Файл Кодек: Н.264 Качество: WEB-DLRip-AVC Видео: MPEG-4 AVC, 1622 Kbps, 1024x428 (2.39:1), 24.000 fps, 0.154 bit/pixel, High@L4.1 Звук 1: 48 kHz, AC3 Dolby Digital, 2/0 (L, R) ch, ~192 kbps | Синема УС Звук 2: 48 kHz, AC3 Dolby Digital, 3/2 (L, C, R, l, r) + LFE ch, ~448 kbps | Итальянский Субтитры: итальянские, испанские Семпл
[+] Скриншоты
[+] MediaInfo raw : 1024x428p 1:1 @ 24/1 fps (cfr) x264 : using SAR=1/1 x264 : using cpu capabilities: MMX2 SSE2Fast SSSE3 SSE4.2 AVX FMA3 BMI2 AVX2 x264 : profile High, level 4.1, 4:2:0, 8-bit x264 : frame I:1109 Avg QP:14.17 size: 41120 x264 : frame P:38879 Avg QP:16.26 size: 17936 x264 : frame B:115920 Avg QP:18.83 size: 4956 x264 : consecutive B-frames: 3.7% 4.3% 12.3% 24.5% 18.4% 30.2% 4.2% 0.6% 0.6% 0.5% 0.2% 0.2% 0.2% x264 : mb I I16..4: 9.8% 64.7% 25.5% x264 : mb P I16..4: 3.3% 22.5% 4.1% P16..4: 29.8% 22.0% 10.7% 0.0% 0.0% skip: 7.6% x264 : mb B I16..4: 0.5% 2.4% 0.4% B16..8: 33.7% 13.7% 3.4% direct: 4.6% skip:41.4% L0:43.6% L1:42.9% BI:13.5% x264 : 8x8 transform intra:74.0% inter:58.0% x264 : direct mvs spatial:100.0% temporal:0.0% x264 : coded y, uvDC, uvAC intra: 72.0% 79.3% 63.3% inter: 17.6% 17.0% 8.4% x264 : i16 v, h, dc, p: 30% 24% 9% 36% x264 : i8 v, h, dc, ddl, ddr, vr, hd, vl, hu: 19% 16% 16% 6% 8% 9% 8% 8% 10% x264 : i4 v, h, dc, ddl, ddr, vr, hd, vl, hu: 23% 16% 11% 6% 11% 10% 9% 7% 8% x264 : i8c dc, h, v, p: 45% 25% 19% 10% x264 : Weighted P-Frames: Y:3.4% UV:1.6% x264 : ref P L0: 58.4% 9.4% 13.5% 4.3% 3.5% 2.5% 2.2% 1.3% 1.1% 0.9% 0.8% 0.7% 0.7% 0.6% 0.1% 0.0% x264 : ref B L0: 85.1% 7.3% 2.7% 1.2% 0.9% 0.8% 0.6% 0.4% 0.3% 0.2% 0.2% 0.2% 0.1% x264 : ref B L1: 96.9% 3.1% x264 : kb/s:1622.38 x264 : encoded 155908 frames, 12.59 fps, 1622.38 kb/s ================================================================= General Unique ID: 280673103412674757340918061787971364257 (0xD327AC66DE77968E9AA710BBA3D4A5A1) Complete name: D:\Kletka.2023.HDRip.AVC.mkv Format: Matroska Format version: Version 4 File size: 1.71 GiB Duration: 1 h 48 min Overall bit rate: 2 264 kb/s Frame rate: 24.000 FPS Movie name: The Cage - Nella gabbia (2023) HDRip-AVC _ vitolinform Encoded date: 2024-07-04 02:32:19 UTC Writing application: mkvmerge v85.0 ('Shame For You') 64-bit Writing library: libebml v1.4.5 + libmatroska v1.7.1 Attachments: poster.jpg / log.log Video ID: 1 Format: AVC Format/Info: Advanced Video Codec Format profile: High@L4.1 Format settings: CABAC / 14 Ref Frames Format settings, CABAC: Yes Format settings, Reference frames: 14 frames Codec ID: V_MPEG4/ISO/AVC Duration: 1 h 48 min Bit rate: 1 622 kb/s Width: 1 024 pixels Height: 428 pixels Display aspect ratio: 2.39:1 Frame rate mode: Constant Frame rate: 24.000 FPS Color space: YUV Chroma subsampling: 4:2:0 Bit depth: 8 bits Scan type: Progressive Bits/(Pixel*Frame): 0.154 Stream size: 1.23 GiB (72%) Title: Клетка / The Cage - Nella gabbia (2023) Writing library: x264 core 164 r3182 be4f020 Encoding settings: cabac=1 / ref=14 / deblock=1:-3:-3 / analyse=0x3:0x113 / me=umh / subme=10 / psy=1 / psy_rd=1.00:0.05 / mixed_ref=1 / me_range=32 / chroma_me=1 / trellis=2 / 8x8dct=1 / cqm=0 / deadzone=21, 11 / fast_pskip=0 / chroma_qp_offset=-3 / threads=12 / lookahead_threads=3 / sliced_threads=0 / nr=0 / decimate=0 / interlaced=0 / bluray_compat=0 / constrained_intra=0 / bframes=12 / b_pyramid=2 / b_adapt=2 / b_bias=0 / direct=3 / weightb=1 / open_gop=0 / weightp=2 / keyint=240 / keyint_min=24 / scenecut=40 / intra_refresh=0 / rc_lookahead=60 / rc=crf / mbtree=0 / crf=18.0 / qcomp=0.60 / qpmin=0 / qpmax=69 / qpstep=4 / vbv_maxrate=50000 / vbv_bufsize=62500 / crf_max=0.0 / nal_hrd=none / filler=0 / ip_ratio=1.40 / pb_ratio=1.30 / aq=1:1.00 Language: English Default: Yes Forced: No Color range: Limited Color primaries: BT.709 Transfer characteristics: BT.709 Matrix coefficients: BT.709 Audio #1 ID: 2 Format: AC-3 Format/Info: Audio Coding 3 Commercial name: Dolby Digital Codec ID: A_AC3 Duration: 1 h 48 min Bit rate mode: Constant Bit rate: 192 kb/s Channel(s): 2 channels Channel layout: L R Sampling rate: 48.0 kHz Frame rate: 31.250 FPS (1536 SPF) Compression mode: Lossy Stream size: 149 MiB (8%) Title: MVO | Синема УС Language: Russian Service kind: Complete Main Default: Yes Forced: No Audio #2 ID: 3 Format: AC-3 Format/Info: Audio Coding 3 Commercial name: Dolby Digital Codec ID: A_AC3 Duration: 1 h 48 min Bit rate mode: Constant Bit rate: 448 kb/s Channel(s): 6 channels Channel layout: L R C LFE Ls Rs Sampling rate: 48.0 kHz Frame rate: 31.250 FPS (1536 SPF) Compression mode: Lossy Stream size: 347 MiB (20%) Title: Italian Language: Italian Service kind: Complete Main Default: No Forced: No Text #1 ID: 4 Format: UTF-8 Codec ID: S_TEXT/UTF8 Codec ID/Info: UTF-8 Plain Text Duration: 1 h 43 min Bit rate: 47 b/s Frame rate: 0.184 FPS Count of elements: 1139 Stream size: 36.0 KiB (0%) Title: Full Language: Italian Default: No Forced: No Text #2 ID: 5 Format: UTF-8 Codec ID: S_TEXT/UTF8 Codec ID/Info: UTF-8 Plain Text Duration: 1 h 43 min Bit rate: 49 b/s Frame rate: 0.184 FPS Count of elements: 1139 Stream size: 37.2 KiB (0%) Title: Spanish Language: Spanish Default: No Forced: No
Rip by vitolinform

Всего файлов в раздаче: 1 
Kletka.2023.HDRip.AVC.mkv1.71 GB

Похожие раздачи по запросу - Клетка
2022-12-20 magnet Клетка разума / Mindcage (2022) WEB-DLRip от Portablius | TVShows 749.05 MB ↑ 0 ↓ 0

Комментарии


Зарегистрируйтесь чтобы добавить комментарий
Торрент клиент
byTorrent - программа для загрузки торрент-файлов.

Скачать byTorrent.exe (1,5 МБ)

Скачать byTorrent.zip (0,6 МБ)

Поддержи torrent.by
российских рублей
(300 российских рублей это 4$)

Обратная связь rss

End game ©