↑↓torrent.by
Поиск
Логин:  Регистрация
Пароль:

И снова здравствуйте! [03x01 из 10] (2024) WEBRip-HEVC 1440p от ExKinoRay | SDR

download Скачать торрент-файл   magnet Магнитная ссылка Размер: 1.52 GB Добавлен: 2024-07-04 11:00
Пиры будут получены из сети DHT
Последний сидер был замечен 2024-07-04 11:00
Информация о фильме Название: И снова здравствуйте! Год выхода: 2024 Жанр: Комедия, криминал Режиссер: Егор Чичканов В ролях: Андрей Мерзликин, Денис Власенко, Павел Чинарёв, Любовь Толкалина, Николай Наумов, Полина Гухман, Влад Фельдман, Антон Лунин, Сергей Годин, Татьяна Струженкова, Кирилл Жандаров, Дмитрий Журавлёв (IV), Михаил Полицеймако, Сергей Епишев, Игорь Грабузов, Никита Дювбанов, Евгений Сангаджиев О фильме: В предстоящем сезоне Борис начнет новую жизнь со своей семьей, поменяет имя и откроет долгожданную кондитерскую, но вот только счастья она ему не принесет. Герой ностальгирует о былых опасных временах, тем более, что бандитское прошлое, кажется, тоже не может его отпустить. Новый бизнес, как бельмо на глазу Гоши и его хладнокровной и жестокой матери, которая вернулась в страну налаживать дела. Теперь двум злейшим врагам Коле и Борису, придется объединиться, чтобы победить Гошу и его маму. Страна: Россия Студия: Кинопоиск, Медиаслово Продолжительность: 1 x ~ 00:30:00 Язык: Русский Реклама: Отсутствует Файл Формат: MKV Качество: WEBRip-HEVC 1440p | SDR Видео: MPEG-H HEVC, ~ 7730 Кбит/с, 2560x1072, 0.106 bit/pixel, 25 Кадр/с, 8 бит Звук : E-AC3, 6 ch, 448 Кбит/с RUS Субтитры: Русские (full, SDH)
[+] МИ General Unique ID : 61363322387819261600399852452745629919 (0x2E2A2560BD5540EFC3E6A66B86F8D0DF) Complete name : G:I.snova.zdravstvujte.S03.2024.WEB-DL.1440p.SDR.ExKinoRayI.snova.zdravstvujte.S03.01.2024.WEB-DL.1440p.SDR.ExKinoRay-1.mkv Format : Matroska Format version : Version 4 File size : 1.52 GiB Duration : 28 min 9 s Overall bit rate : 7 730 kb/s Encoded date : UTC 2024-07-03 21:28:38 Writing application : mkvmerge v56.1.0 ('My Friend') 64-bit Writing library : libebml v1.4.2 + libmatroska v1.6.4 Video ID : 1 Format : HEVC Format/Info : High Efficiency Video Coding Format profile : Main@L5@High Codec ID : V_MPEGH/ISO/HEVC Duration : 28 min 9 s Bit rate : 7 279 kb/s Width : 2 560 pixels Height : 1 072 pixels Display aspect ratio : 2.40:1 Frame rate mode : Constant Frame rate : 25.000 FPS Color space : YUV Chroma subsampling : 4:2:0 Bit depth : 8 bits Bits/(Pixel*Frame) : 0.106 Stream size : 1.43 GiB (94%) Writing library : x265 3.5: 8bit+10bit Encoding settings : cpuid=1111039 / frame-threads=5 / wpp / no-pmode / no-pme / no-psnr / no-ssim / log-level=2 / input-csp=1 / input-res=2560x1072 / interlace=0 / total-frames=0 / level-idc=50 / high-tier=1 / uhd-bd=0 / ref=2 / no-allow-non-conformance / no-repeat-headers / annexb / no-aud / no-hrd / info / hash=0 / no-temporal-layers / open-gop / min-keyint=1 / keyint=100 / gop-lookahead=0 / bframes=4 / b-adapt=2 / b-pyramid / bframe-bias=0 / rc-lookahead=25 / lookahead-slices=4 / scenecut=40 / hist-scenecut=0 / radl=0 / no-splice / no-intra-refresh / ctu=64 / min-cu-size=8 / rect / no-amp / max-tu-size=32 / tu-inter-depth=1 / tu-intra-depth=1 / limit-tu=0 / rdoq-level=2 / dynamic-rd=0.00 / no-ssim-rd / signhide / no-tskip / nr-intra=0 / nr-inter=0 / no-constrained-intra / strong-intra-smoothing / max-merge=3 / limit-refs=3 / limit-modes / me=3 / subme=3 / merange=57 / temporal-mvp / no-frame-dup / no-hme / weightp / no-weightb / no-analyze-src-pics / deblock=0:0 / sao / no-sao-non-deblock / rd=4 / selective-sao=4 / no-early-skip / rskip / no-fast-intra / no-tskip-fast / no-cu-lossless / no-b-intra / no-splitrd-skip / rdpenalty=0 / psy-rd=2.00 / psy-rdoq=1.00 / no-rd-refine / no-lossless / cbqpoffs=0 / crqpoffs=0 / rc=abr / bitrate=8100 / qcomp=0.60 / qpstep=4 / stats-write=0 / stats-read=2 / cplxblur=20.0 / qblur=0.5 / vbv-maxrate=12150 / vbv-bufsize=32400 / vbv-init=0.8 / min-vbv-fullness=50.0 / max-vbv-fullness=80.0 / ipratio=1.40 / pbratio=1.30 / aq-mode=2 / aq-strength=1.00 / cutree / zone-count=0 / no-strict-cbr / qg-size=32 / no-rc-grain / qpmax=69 / qpmin=0 / no-const-vbv / sar=1 / overscan=0 / videoformat=5 / range=0 / colorprim=1 / transfer=2 / colormatrix=1 / chromaloc=0 / display-window=0 / cll=0,0 / min-luma=0 / max-luma=255 / log2-max-poc-lsb=8 / vui-timing-info / vui-hrd-info / slices=1 / no-opt-qp-pps / no-opt-ref-list-length-pps / no-multi-pass-opt-rps / scenecut-bias=0.05 / hist-threshold=0.03 / no-opt-cu-delta-qp / no-aq-motion / no-hdr10 / no-hdr10-opt / no-dhdr10-opt / no-idr-recovery-sei / analysis-reuse-level=0 / analysis-save-reuse-level=0 / analysis-load-reuse-level=0 / scale-factor=0 / refine-intra=0 / refine-inter=0 / refine-mv=1 / refine-ctu-distortion=0 / no-limit-sao / ctu-info=0 / no-lowpass-dct / refine-analysis-type=0 / copy-pic=1 / max-ausize-factor=1.0 / no-dynamic-refine / no-single-sei / no-hevc-aq / no-svt / no-field / qp-adaptation-range=1.00 / scenecut-aware-qp=0conformance-window-offsets / right=0 / bottom=0 / decoder-max-rate=0 / no-vbv-live-multi-pass Language : Russian Default : Yes Forced : No Color range : Limited Color primaries : BT.709 Matrix coefficients : BT.709 Audio ID : 2 Format : E-AC-3 Format/Info : Enhanced AC-3 Commercial name : Dolby Digital Plus Codec ID : A_EAC3 Duration : 28 min 9 s Bit rate mode : Constant Bit rate : 448 kb/s Channel(s) : 6 channels Channel layout : L R C LFE Ls Rs Sampling rate : 48.0 kHz Frame rate : 31.250 FPS (1536 SPF) Bit depth : 32 bits Compression mode : Lossy Stream size : 90.2 MiB (6%) Title : "Русский 5.1" Language : Russian Service kind : Complete Main Default : Yes Forced : No Text #1 ID : 3 Format : UTF-8 Codec ID : S_TEXT/UTF8 Codec ID/Info : UTF-8 Plain Text Duration : 24 min 29 s Bit rate : 114 b/s Frame rate : 0.238 FPS Count of elements : 350 Stream size : 20.5 KiB (0%) Title : "Русские" Language : Russian Default : No Forced : No Text #2 ID : 4 Format : UTF-8 Codec ID : S_TEXT/UTF8 Codec ID/Info : UTF-8 Plain Text Duration : 24 min 49 s Bit rate : 122 b/s Frame rate : 0.272 FPS Count of elements : 405 Stream size : 22.2 KiB (0%) Title : "Русские (для слабослышащих)" Language : Russian Default : No Forced : No Text #3 ID : 5 Format : UTF-8 Codec ID : S_TEXT/UTF8 Codec ID/Info : UTF-8 Plain Text Duration : 24 min 29 s Bit rate : 114 b/s Frame rate : 0.238 FPS Count of elements : 350 Stream size : 20.5 KiB (0%) Title : "Русские" Language : Russian Default : No Forced : No Text #4 ID : 6 Format : UTF-8 Codec ID : S_TEXT/UTF8 Codec ID/Info : UTF-8 Plain Text Duration : 24 min 49 s Bit rate : 122 b/s Frame rate : 0.272 FPS Count of elements : 405 Stream size : 22.2 KiB (0%) Title : "Русские (для слабослышащих)" Language : Russian Default : No Forced : No
[+] Скриншоты
Релиз от:

Всего файлов в раздаче: 1 
I.snova.zdravstvujte.S03.01.2024.WEB-DL.1440p.SDR.ExKinoRay-1.mkv1.52 GB

Похожие раздачи по запросу - снова
Вчера magnet И снова здравствуйте! [03х01-03 из 10] (2024) WEB-DLRip от Files-x 1.04 GB ↑ 0 ↓ 0
2024-07-18 magnet И снова здравствуйте! [03x01-03 из 10] (2024) WEB-DL 1080p от ExKinoRay 3.24 GB ↑ 0 ↓ 2
2024-07-18 magnet И снова здравствуйте! [03x01-03 из 10] (2024) WEBRip-HEVC 1440p от ExKinoRay | SDR 2.97 GB ↑ 0 ↓ 0
2024-07-14 magnet И снова здравствуйте! [03х01-02 из 10] (2024) WEB-DLRip-AVC от Generalfilm | КПК 246.72 MB ↑ 0 ↓ 0
2024-07-12 magnet И снова здравствуйте! [03х01-02 из 10] (2024) WEB-DLRip от Files-x 765.53 MB ↑ 0 ↓ 0
2024-07-11 magnet И снова здравствуйте! [03x01-02 из 10] (2024) WEB-DL 1080p от ExKinoRay 2.29 GB ↑ 0 ↓ 0
2024-07-11 magnet И снова здравствуйте! [03х01-02 из 10] (2024) WEB-DLRip-AVC от Files-х 797.65 MB ↑ 0 ↓ 0

Комментарии


Зарегистрируйтесь чтобы добавить комментарий
Торрент клиент
byTorrent - программа для загрузки торрент-файлов.

Скачать byTorrent.exe (1,5 МБ)

Скачать byTorrent.zip (0,6 МБ)

Поддержи torrent.by
российских рублей
(300 российских рублей это 4$)

Обратная связь rss

End game ©