↑↓torrent.by
Поиск
Логин:  Регистрация
Пароль:

Снять проклятие / Reverse the Curse (2023) WEB-DLRip от New-Team | P | HDRezka Studio

download Скачать торрент-файл   magnet Магнитная ссылка Размер: 1.46 GB Добавлен: 2024-07-04 11:00
Пиры будут получены из сети DHT
Последний сидер был замечен 2024-07-04 11:00
Снять проклятие / Reverse the Curse Год выпуска: 2023 Выпущено: США / Yale Productions Жанр: драма, мелодрама, комедия, спорт Режиссер: Дэвид Духовны / David Duchovny В ролях: Стефани Беатриз, Памела Адлон, Логан Маршалл-Грин, Дэвид Духовны, Джейсон Бех, Эван Хэндлер, Дафна Рубин-Вега, Бен Хопкинс, Санто Фацио, Ральф Йован Родригес О фильме: 33-летний писатель-неудачник Тед, давно переставший преследовать всякие жизненные цели, узнает, что его отец Марти серьезно болен. Парень переезжает к нему и вскоре замечает, что состояние отца ухудшается всякий раз, как проигрывает его любимая бейсбольная команда «Ред Сокс». Чтобы избавить старика от лишних переживаний, Тед решает сфальсифицировать итоги матчей с помощью отцовских приятелей. Между тем, он знакомится с очаровательной Марианной, которая возрождает в нем тягу к писательству. Продолжительность: 01:48:33 Перевод: Профессиональный (многоголосый, закадровый) | HDRezka Studio Субтитры: Русские (forced) Раздача от : Формат: AVI Качество: WEB-DLRip Видео: 704x384 (1,85:1), 23.976 fps, XviD MPEG-4 ~ 1729 kbps avg, 0.267 bit/pixel, build 74 Аудио: 48 kHz, AC3 Dolby Digital, 2/0 (L,R) ch, ~ 192 kbps | RUS |
[+] MediaInfoОбщее Полное имя : D:TorrentsReverse.the.Curse.2023.WEB-DLRip_от New-TeamReverse.the.Curse.2023.WEB-DLRip_от New-Team.avi Формат : AVI Формат/Информация : Audio Video Interleave Размер файла : 1,46 Гбайт Продолжительность : 1 ч. 48 м. Общий поток : 1 930 Кбит/сек Программа кодирования : VirtualDubMod 1.5.10.2 (build 2540/release) Библиотека кодирования : VirtualDubMod build 2540/release Видео Идентификатор : 0 Формат : MPEG-4 Visual Профиль формата : Advanced Simple@L5 Настройки формата : BVOP1 / Custom Matrix Параметр BVOP формата : 1 Параметр QPel формата : Нет Параметр GMC формата : Без точки перехода Параметр матрицы формата : Выборочная Идентификатор кодека : XVID Идентификатор кодека/Подсказка : XviD Продолжительность : 1 ч. 48 м. Битрейт : 1 729 Кбит/сек Ширина : 704 пикселя Высота : 384 пикселя Соотношение сторон : 1,85:1 Частота кадров : 23,976 (24000/1001) кадра/сек Цветовое пространство : YUV Субдискретизация насыщенности : 4:2:0 Битовая глубина : 8 бит Тип развёртки : Прогрессивная Метод сжатия : С потерями Бит/(Пиксели*Кадры) : 0.267 Размер потока : 1,31 Гбайт (90%) Библиотека кодирования : XviD 74 Аудио Идентификатор : 1 Формат : AC-3 Формат/Информация : Audio Coding 3 Коммерческое название : Dolby Digital Идентификатор кодека : 2000 Продолжительность : 1 ч. 48 м. Вид битрейта : Постоянный Битрейт : 192 Кбит/сек Каналы : 2 канала Channel layout : L R Частота : 48,0 КГц Частота кадров : 31,250 кадров/сек (1536 SPF) Метод сжатия : С потерями Размер потока : 149 Мбайт (10%) Выравнивание : Разделение по промежуткам Продолжительность промежутка : 42 мс. (1,00 видеокадр) Время предзагрузки промежутка : 500 мс. Service kind : Complete Main

Всего файлов в раздаче: 2 
Reverse.the.Curse.2023.WEB-DLRip_от New-Team.avi1.46 GB
Reverse.the.Curse.2023.WEB-DLRip_от New-Team_[rus].srt1.25 kB

Похожие раздачи по запросу - Снять
2024-07-04 magnet Снять проклятие / Reverse the Curse (2023) WEB-DLRip-AVC | P | HDRezka Studio 1.98 GB ↑ 0 ↓ 0
2024-07-04 magnet Снять проклятие / Reverse the Curse (2023) WEB-DLRip 720p от DoMiNo & селезень | P | HDRezka Studio 2.76 GB ↑ 0 ↓ 0
2024-07-02 magnet Снять проклятие / Reverse the Curse (2023) WEB-DLRip-AVC | L | RGB 1.60 GB ↑ 3 ↓ 0
2024-07-02 magnet Снять проклятие / Reverse the Curse (2023) WEB-DL 1080p | L | RGB 7.73 GB ↑ 5 ↓ 0
2024-04-05 magnet Ленинград. Снять блокаду [01-02 из 02] (2024) HDTV 1080p от MAGNAT 2.56 GB ↑ 0 ↓ 0

Комментарии


Зарегистрируйтесь чтобы добавить комментарий
Торрент клиент
byTorrent - программа для загрузки торрент-файлов.

Скачать byTorrent.exe (1,5 МБ)

Скачать byTorrent.zip (0,6 МБ)

Поддержи torrent.by
российских рублей
(300 российских рублей это 4$)

Обратная связь rss

End game ©