↑↓torrent.by
Поиск
Логин:  Регистрация
Пароль:

Снять проклятие / Reverse the Curse (2023) WEB-DLRip 720p от DoMiNo & селезень | P | HDRezka Studio

download Скачать торрент-файл   magnet Магнитная ссылка Размер: 2.76 GB Добавлен: 2024-07-04 11:00
Пиры будут получены из сети DHT
Последний сидер был замечен 2024-07-15 15:45
Информация о фильме Название: Снять проклятие Оригинальное название: Reverse the Curse Год выхода: 2023 Жанр: Драма, мелодрама, комедия, спорт Режиссер: Дэвид Духовны В ролях: Стефани Беатриз, Памела Адлон, Логан Маршалл-Грин, Дэвид Духовны, Джейсон Бех, Эван Хэндлер, Дафна Рубин-Вега, Бен Хопкинс, Санто Фацио, Ральф Йован Родригес О фильме: 33-летний писатель-неудачник Тед, давно переставший преследовать всякие жизненные цели, узнает, что его отец Марти серьезно болен. Парень переезжает к нему и вскоре замечает, что состояние отца ухудшается всякий раз, как проигрывает его любимая бейсбольная команда «Ред Сокс». Чтобы избавить старика от лишних переживаний, Тед решает сфальсифицировать итоги матчей с помощью отцовских приятелей. Между тем, он знакомится с очаровательной Марианной, которая возрождает в нем тягу к писательству. Страна: США Студия: Yale Productions Продолжительность: 01:48:33 Перевод: Профессиональный (многоголосый, закадровый) | HDRezka Studio 18 + Субтитры: Русские (Forced), Английские Файл Формат: Matroska Качество: WEB-DLRip 720p Видео: 1280x692 at 23.976 fps, x264@L4.1, ~3059 kbps Аудио 1: AC3, 2 ch, ~192 kbps - | Русский | Аудио 2: AC3, 6 ch, ~384 kbps - | Английский | Формат субтитров: softsub (SRT) ***Рип от: -=DoMiNo=-
[+] M/IGeneral Unique ID : 242324567547025753765313120401197932165 (0xB64E039B66244B3F43F5142BC8C89E85) Complete name : G:Reverse.the.Curse.2023.WEB-DLRip.720p.x264.seleZen.mkv Format : Matroska Format version : Version 4 File size : 2.76 GiB Duration : 1 h 48 min Overall bit rate : 3 638 kb/s Frame rate : 23.976 FPS Movie name : Reverse.the.Curse.2023.WEB-DLRip.720p.x264.seleZen Encoded date : 2024-07-03 18:53:06 UTC Writing application : mkvmerge v85.0 ('Shame For You') 64-bit Writing library : libebml v1.4.5 + libmatroska v1.7.1 Cover : Yes Attachments : cover.jpg / small_cover.jpg Video ID : 1 Format : AVC Format/Info : Advanced Video Codec Format profile : High@L4.1 Format settings : CABAC / 5 Ref Frames Format settings, CABAC : Yes Format settings, Reference : 5 frames Codec ID : V_MPEG4/ISO/AVC Duration : 1 h 48 min Bit rate : 3 059 kb/s Width : 1 280 pixels Height : 692 pixels Display aspect ratio : 1.85:1 Frame rate mode : Constant Frame rate : 23.976 (24000/1001) FPS Color space : YUV Chroma subsampling : 4:2:0 Bit depth : 8 bits Scan type : Progressive Bits/(Pixel*Frame) : 0.144 Stream size : 2.32 GiB (84%) Title : -=DoMiNo=- Writing library : x264 core 164 r3191 -DoMiNo Encoding settings : cabac=1 / ref=5 / deblock=1:-3:-2 / analyse=0x3:0x133 / me=umh / subme=10 / psy=1 / psy_rd=1.05:0.05 / mixed_ref=1 / me_range=32 / chroma_me=1 / trellis=2 / 8x8dct=1 / cqm=0 / deadzone=21,11 / fast_pskip=0 / chroma_qp_offset=-3 / threads=22 / lookahead_threads=5 / sliced_threads=0 / nr=0 / decimate=1 / interlaced=0 / bluray_compat=0 / constrained_intra=0 / bframes=12 / b_pyramid=2 / b_adapt=2 / b_bias=0 / direct=3 / weightb=1 / open_gop=0 / weightp=2 / keyint=240 / keyint_min=23 / scenecut=40 / intra_refresh=0 / rc_lookahead=60 / rc=crf / mbtree=0 / crf=20.0 / qcomp=0.60 / qpmin=0 / qpmax=69 / qpstep=4 / vbv_maxrate=50000 / vbv_bufsize=62500 / crf_max=0.0 / nal_hrd=none / filler=0 / ip_ratio=1.35 / pb_ratio=1.30 / aq=1:0.90 Language : English Default : Yes Forced : No Color range : Limited Color primaries : BT.709 Transfer characteristics : BT.709 Matrix coefficients : BT.709 Audio #1 ID : 2 Format : AC-3 Format/Info : Audio Coding 3 Commercial name : Dolby Digital Codec ID : A_AC3 Duration : 1 h 48 min Bit rate mode : Constant Bit rate : 192 kb/s Channel(s) : 2 channels Channel layout : L R Sampling rate : 48.0 kHz Frame rate : 31.250 FPS (1536 SPF) Compression mode : Lossy Stream size : 149 MiB (5%) Title : MVO - HDRezka Language : Russian Service kind : Complete Main Default : Yes Forced : No Dialog Normalization : -31 dB dialnorm_Average : -31 dB dialnorm_Minimum : -31 dB dialnorm_Maximum : -31 dB Audio #2 ID : 3 Format : AC-3 Format/Info : Audio Coding 3 Commercial name : Dolby Digital Codec ID : A_AC3 Duration : 1 h 48 min Bit rate mode : Constant Bit rate : 384 kb/s Channel(s) : 6 channels Channel layout : L R C LFE Ls Rs Sampling rate : 48.0 kHz Frame rate : 31.250 FPS (1536 SPF) Compression mode : Lossy Stream size : 298 MiB (11%) Language : English Service kind : Complete Main Default : No Forced : No Dialog Normalization : -31 dB cmixlev : -4.5 dB surmixlev : -6 dB dialnorm_Average : -31 dB dialnorm_Minimum : -31 dB dialnorm_Maximum : -31 dB Text #1 ID : 4 Format : UTF-8 Codec ID : S_TEXT/UTF8 Codec ID/Info : UTF-8 Plain Text Duration : 1 h 32 min Bit rate : 1 b/s Frame rate : 0.002 FPS Count of elements : 12 Stream size : 847 Bytes (0%) Title : Forced Language : Russian Default : No Forced : No Text #2 ID : 5 Format : UTF-8 Codec ID : S_TEXT/UTF8 Codec ID/Info : UTF-8 Plain Text Duration : 1 h 47 min Bit rate : 75 b/s Frame rate : 0.320 FPS Count of elements : 2068 Stream size : 59.8 KiB (0%) Title : SDH Language : English Default : No Forced : No Menu 00:00:00.000 : en:Chapter 01 00:05:50.000 : en:Chapter 02 00:11:40.000 : en:Chapter 03 00:17:30.000 : en:Chapter 04 00:23:20.000 : en:Chapter 05 00:29:10.000 : en:Chapter 06 00:35:00.000 : en:Chapter 07 00:40:50.000 : en:Chapter 08 00:46:40.000 : en:Chapter 09 00:52:30.000 : en:Chapter 10 00:58:20.000 : en:Chapter 11 01:04:10.000 : en:Chapter 12 01:10:00.000 : en:Chapter 13 01:15:50.000 : en:Chapter 14 01:21:40.000 : en:Chapter 15 01:27:30.000 : en:Chapter 16 01:33:20.000 : en:Chapter 17 01:39:10.000 : en:Chapter 18 01:45:00.000 : en:Chapter 19
Релиз: Присоединяйся к: Кликай на баннеры.

Всего файлов в раздаче: 1 
Reverse.the.Curse.2023.WEB-DLRip.720p.x264.seleZen.mkv2.76 GB

Похожие раздачи по запросу - Снять
2024-07-04 magnet Снять проклятие / Reverse the Curse (2023) WEB-DLRip-AVC | P | HDRezka Studio 1.98 GB ↑ 0 ↓ 0
2024-07-04 magnet Снять проклятие / Reverse the Curse (2023) WEB-DLRip от New-Team | P | HDRezka Studio 1.46 GB ↑ 0 ↓ 0
2024-07-02 magnet Снять проклятие / Reverse the Curse (2023) WEB-DLRip-AVC | L | RGB 1.60 GB ↑ 0 ↓ 0
2024-07-02 magnet Снять проклятие / Reverse the Curse (2023) WEB-DL 1080p | L | RGB 7.73 GB ↑ 3 ↓ 1
2024-04-05 magnet Ленинград. Снять блокаду [01-02 из 02] (2024) HDTV 1080p от MAGNAT 2.56 GB ↑ 0 ↓ 0

Комментарии


Зарегистрируйтесь чтобы добавить комментарий
Торрент клиент
byTorrent - программа для загрузки торрент-файлов.

Скачать byTorrent.exe (1,5 МБ)

Скачать byTorrent.zip (0,6 МБ)

Поддержи torrent.by
российских рублей
(300 российских рублей это 4$)

Обратная связь rss

End game ©