↑↓torrent.by
Поиск
Логин:  Регистрация
Пароль:

Падение империи / Гражданская война / Civil War (2024) BDRip от New-Team | D | Пифагор, HDRezka Studio

download Скачать торрент-файл   magnet Магнитная ссылка Размер: 2.18 GB Добавлен: 2024-07-04 11:00
Пиры будут получены из сети DHT
Последний сидер был замечен 2024-07-07 05:15
Падение империи / Гражданская война / Civil War Год выпуска: 2024 Выпущено: США, Великобритания / DNA Films, IPR.VC, A24 Жанр: боевик, драма Режиссер: Алекс Гарленд / Alex Garland В ролях: Кирстен Данст, Вагнер Моура, Кейли Спейни, Стивен Хендерсон, Соноя Мидзуно, Ник Офферман, Джефферсон Уайт, Хуани Фелиз, Нельсон Ли, Эдмунд Донован О фильме: Национальная гвардия Калифорнии и Техаса при поддержке боевой техники и авиации штурмуют столицу. Белый дом вот-вот падет. Группа журналистов пытается добраться до пылающего Вашингтона, чтобы взять последнее интервью у президента некогда Соединенных Штатов Америки. Но в стране, где царит хаос, нет ничего дороже литра бензина и ничего дешевле, чем человеческая жизнь. Продолжительность: 01:49:00 Перевод (ы): #1: Профессиональный (полное дублирование) | Пифагор #2: Дублированный (неофициальный) | HDRezka Studio Субтитры: Русские (forced, full) , английские Раздача от : Формат: AVI Качество: BDRip | Civil War 2024 1080p Blu-ray Remux AVC TrueHD Atmos 7 1-CiNEPHiLES Видео: 704x384 (1.85:1), 23.976 fps, XviD MPEG-4 ~ 2205 kbps avg, 0.340 bit/pixel, build 74 Аудио: 48 kHz, AC3 Dolby Digital, 3/2 (L,C,R,l,r) + LFE ch, ~ 448 kbps | RUS | Пифагор Аудио: 48 kHz, AC3 Dolby Digital, 2/0 (L,R) ch, ~ 192 kbps | RUS | HDRezka Studio
[+] MediaInfoОбщее Полное имя : D:TorrentsCivil War 2024 1080p Blu-ray Remux AVC TrueHD Atmos 7 1-CiNEPHiLESCivil.War.2024.BDRip_от New-TeamCivil.War.2024.BDRip_от New-Team.avi Формат : AVI Формат/Информация : Audio Video Interleave Профиль формата : OpenDML Размер файла : 2,18 Гбайт Продолжительность : 1 ч. 49 м. Общий поток : 2 863 Кбит/сек Программа кодирования : VirtualDubMod 1.5.10.2 (build 2540/release) Библиотека кодирования : VirtualDubMod build 2540/release Видео Идентификатор : 0 Формат : MPEG-4 Visual Профиль формата : Advanced Simple@L5 Настройки формата : BVOP1 / Custom Matrix Параметр BVOP формата : 1 Параметр QPel формата : Нет Параметр GMC формата : Без точки перехода Параметр матрицы формата : Выборочная Идентификатор кодека : XVID Идентификатор кодека/Подсказка : XviD Продолжительность : 1 ч. 49 м. Битрейт : 2 205 Кбит/сек Ширина : 704 пикселя Высота : 384 пикселя Соотношение сторон : 1,85:1 Частота кадров : 23,976 (24000/1001) кадра/сек Цветовое пространство : YUV Субдискретизация насыщенности : 4:2:0 Битовая глубина : 8 бит Тип развёртки : Прогрессивная Метод сжатия : С потерями Бит/(Пиксели*Кадры) : 0.340 Размер потока : 1,68 Гбайт (77%) Библиотека кодирования : XviD 74 Аудио #1 Идентификатор : 1 Формат : AC-3 Формат/Информация : Audio Coding 3 Коммерческое название : Dolby Digital Идентификатор кодека : 2000 Продолжительность : 1 ч. 49 м. Вид битрейта : Постоянный Битрейт : 448 Кбит/сек Каналы : 6 каналов Channel layout : L R C LFE Ls Rs Частота : 48,0 КГц Частота кадров : 31,250 кадров/сек (1536 SPF) Метод сжатия : С потерями Размер потока : 349 Мбайт (16%) Выравнивание : Разделение по промежуткам Продолжительность промежутка : 42 мс. (1,00 видеокадр) Время предзагрузки промежутка : 500 мс. Заголовок : Пифагор Service kind : Complete Main Аудио #2 Идентификатор : 2 Формат : AC-3 Формат/Информация : Audio Coding 3 Коммерческое название : Dolby Digital Идентификатор кодека : 2000 Продолжительность : 1 ч. 49 м. Вид битрейта : Постоянный Битрейт : 192 Кбит/сек Каналы : 2 канала Channel layout : L R Частота : 48,0 КГц Частота кадров : 31,250 кадров/сек (1536 SPF) Метод сжатия : С потерями Размер потока : 150 Мбайт (7%) Выравнивание : Разделение по промежуткам Продолжительность промежутка : 42 мс. (1,00 видеокадр) Время предзагрузки промежутка : 500 мс. Заголовок : HDRezka Studio Service kind : Complete Main

Всего файлов в раздаче: 4 
Civil.War.2024.BDRip_от New-Team.avi2.18 GB
Civil.War.2024.BDRip_от New-Team_[eng].srt63.92 kB
Civil.War.2024.BDRip_от New-Team_forced_[rus].srt803.00 B
Civil.War.2024.BDRip_от New-Team_full_[rus].srt83.53 kB

Похожие раздачи по запросу - Падение
2024-07-13 magnet Падение империи / Гражданская война / Civil War (2024) BDRip 1080p от Generalfilm | D 6.57 GB ↑ 0 ↓ 1
2024-07-11 magnet Падение империи / Гражданская война / Civil War (2024) BDRip-HEVC 1080p от HEVC-CLUB | D 4.64 GB ↑ 0 ↓ 1
2024-07-10 magnet Падение империи / Гражданская война / Civil War (2024) BDRip-HEVC 1080p от RIPS CLUB | D, P2 6.39 GB ↑ 0 ↓ 2
2024-07-07 magnet Падение империи / Гражданская война / Civil War (2024) HDRip-AVC от ExKinoRay | D | Пифагор 744.00 MB ↑ 0 ↓ 0
2024-07-06 magnet Падение империи / Civil War (2024) UHD BDRemux 2160p | 4K | HDR10 | Dolby Vision | D | Пифагор 67.89 GB ↑ 0 ↓ 0
2024-07-06 magnet Падение империи / Гражданская война / Civil War (2024) BDRemux 1080p | D, P2 | Пифагор, HDrezka Studio, ViruseProject 25.75 GB ↑ 0 ↓ 0
2024-07-06 magnet Падение империи / Гражданская война / Civil War (2024) BDRip 1080p от ExKinoRay | D, P, P2 13.90 GB ↑ 0 ↓ 0

Комментарии


Зарегистрируйтесь чтобы добавить комментарий
Торрент клиент
byTorrent - программа для загрузки торрент-файлов.

Скачать byTorrent.exe (1,5 МБ)

Скачать byTorrent.zip (0,6 МБ)

Поддержи torrent.by
российских рублей
(300 российских рублей это 4$)

Обратная связь rss

End game ©