↑↓torrent.by
Поиск
Логин:  Регистрация
Пароль:

VA - Music For Swimming Pools, Vol. 1 [24-bit Hi-Res] (2024) FLAC

download Скачать торрент-файл   magnet Магнитная ссылка Размер: 630.18 MB Добавлен: 2024-07-04 11:00
Пиры будут получены из сети DHT
Последний сидер был замечен 2024-07-11 14:40
Название: Music For Swimming Pools, Vol. 1 Исполнитель: VA Год: 2024 Жанр: Electronic, Dance Издатель (лейбл): Music For Swimming Pools Продолжительность: 00:55:19 Формат/Кодек: FLAC Тип рипа: Tracks Битрейт аудио: Lossless Разрядность: 24 Bit/44,1 kHz
[+] Трек-лист 01. Pete Herbert - Legzira Sunrise (00:03:05) 02. Fabulous Lover - Notes To Self (00:05:07) 03. Uj Pa Gaz - Lulu (Pete Herbert Remix) (00:04:58) 04. Gafas Du Soul - Embers (00:03:58) 05. D.S.D. - Canto Recanto (00:06:24) 06. Pete Herbert - Far Flung (Gold Suite Restriпg) (00:06:07) 07. Fernando - Venus Banfield (00:06:02) 08. Marius - Still No Bugatti (00:04:31) 09. Coyote - Copacetic (Reverso 68 Remix) (00:04:46) 10. Max Essa - Sacaton Skylines (00:06:01) 11. Pete Herbert - South Seas (Rudy's Midnight Machine Reprise) (00:04:20)
[+] DRM 19:29 01.07.2024foobar2000 1.5.5 / Замер динамического диапазона (DR) 1.1.1 ------------------------------------------------------------------------------- Анализ: Coyote / Music For Swimming Pools, Vol. 1 (1) D.S.D. / Music For Swimming Pools, Vol. 1 (2) Fabulous Lover / Music For Swimming Pools, Vol. 1 (3) Fernando / Music For Swimming Pools, Vol. 1 (4) Gafas Du Soul / Music For Swimming Pools, Vol. 1 (5) Marius / Music For Swimming Pools, Vol. 1 (6) Max Essa / Music For Swimming Pools, Vol. 1 (7) Pete Herbert / Music For Swimming Pools, Vol. 1 (8-10) Uj Pa Gaz / Music For Swimming Pools, Vol. 1 (11) -------------------------------------------------------------------------------- DR Пики RMS Продолжительность трека -------------------------------------------------------------------------------- DR8 -0.30 дБ -9.51 дБ 4:46 09-Copacetic (Reverso 68 Remix) DR7 -0.30 дБ -9.50 дБ 6:24 05-Canto Recanto DR8 -0.30 дБ -9.42 дБ 5:07 02-Notes To Self DR9 -1.22 дБ -11.53 дБ 6:02 07-Venus Banfield DR6 -0.30 дБ -8.53 дБ 3:58 04-Embers DR8 -0.30 дБ -9.80 дБ 4:31 08-Still No Bugatti DR7 -0.30 дБ -8.37 дБ 6:01 10-Sacaton Skylines DR8 -0.30 дБ -11.02 дБ 3:05 01-Legzira Sunrise DR6 -0.30 дБ -7.75 дБ 6:07 06-Far Flung (Gold Suite Restriпg) DR8 -0.30 дБ -9.77 дБ 4:20 11-South Seas (Rudy's Midnight Machine Reprise) DR7 -0.30 дБ -8.76 дБ 4:58 03-Lulu (Pete Herbert Remix) -------------------------------------------------------------------------------- Количество треков: 11 Реальные значения DR: DR7 Частота: 44100 Гц Каналов: 2 Разрядность: 24 Битрейт: 1627 кбит/с Кодек: FLAC ================================================================================
Время раздачи: 24/7 (минимум до появления первых 3-5 скачавших, на раздачи не возвращаюсь) Первое правило участника файлообмена: "Скачал сам - дай скачать другому!"

Всего файлов в раздаче: 12 
01. Pete Herbert - Legzira Sunrise.flac35.64 MB
02. Fabulous Lover - Notes to Self.flac53.25 MB
03. Uj Pa Gaz - Lulu (Pete Herbert Remix).flac57.81 MB
04. Gafas Du Soul - Embers.flac43.15 MB
05. D.S.D. - Canto Recanto.flac75.56 MB
06. Pete Herbert - Far Flung (Gold Suite Restring).flac68.11 MB
07. Fernando - Venus Banfield.flac63.84 MB
08. Marius - Still No Bugatti.flac55.56 MB
09. Coyote - Copacetic (Reverso 68 Remix).flac55.71 MB
10. Max Essa - Sacaton Skylines.flac70.87 MB
Показать все файлы

Похожие раздачи по запросу - Music
2024-07-14 magnet Trap Nation - Music Remix (2023 - 2024) MP3 682.81 MB ↑ 0 ↓ 0
2024-07-13 magnet Black Tbilisi- Music Playlist (2015 - 2023) MP3 3.24 GB ↑ 0 ↓ 0
2024-07-13 magnet VA - Music News vol.400 (2024) MP3 814.65 MB ↑ 0 ↓ 0
2024-07-12 magnet VA - Music News vol.399 (2024) MP3 674.15 MB ↑ 0 ↓ 0
2024-07-10 magnet VA - Lofi Music Best Selections 2024 (2024) MP3 255.00 MB ↑ 0 ↓ 0
2024-07-10 magnet VA - New Music Releases Week 27 (2024) MP3 3.50 GB ↑ 0 ↓ 0
2024-07-10 magnet VA - Music News vol.398 (2024) MP3 703.84 MB ↑ 0 ↓ 0

Комментарии


Зарегистрируйтесь чтобы добавить комментарий
Торрент клиент
byTorrent - программа для загрузки торрент-файлов.

Скачать byTorrent.exe (1,5 МБ)

Скачать byTorrent.zip (0,6 МБ)

Поддержи torrent.by
российских рублей
(300 российских рублей это 4$)

Обратная связь rss

End game ©