↑↓torrent.by
Поиск
Логин:  Регистрация
Пароль:

Варшава 21 / Рашн Гейт [S01] (2024) WEBRip 720p от ExKinoRay

download Скачать торрент-файл   magnet Магнитная ссылка Размер: 15.12 GB Добавлен: 2024-07-04 11:00
Пиры будут получены из сети DHT
Последний сидер был замечен 2024-07-14 22:35
Информация о фильме Название: Варшава 21 / Рашн Гейт Год выхода: 2024 Жанр: Детектив Режиссер: Феликс Герчиков В ролях: Дмитрий Миллер, Дмитрий Куличков, Валерия Шкирандо, Константин Крюков, Сергей Юшкевич, Андрей Ильин, Юрий Батурин, Николай Козак, Анатолий Котенёв, Юрий Беляев, Сергей Гурьев О фильме: В ходе предвыборной гонки за кресло президента Польши цинично убивают знаменитого журналиста Козельского. Польские телеканалы моментально подхватывают версию о вмешательстве России во внутренние дела страны, с целью поддержки силезских сепаратистов и дестабилизации обстановки. В качестве доказательства по ТВ крутят аудиозапись разговора российского посла Конобеева и одного из кандидатов в президенты Домбровского, которая, якобы, была разослана с почты убитого журналиста. Из небольшой искры раздувается геополитический пожар, способный нанести огромный ущерб интересам страны. Скомпрометированный сотрудник дипмиссии попадает в больницу с инфарктом, а на его место прибывает кризисный дипломат Вячеслав Васильев. Ему предстоит доказать, что обвинения в адрес Москвы не имеют под собой никаких оснований. Страна: Россия Студия: Медведь, Okko Studios Продолжительность: 12 ~ 00:46:00 Язык: Русский Реклама: Отсутствует Файл Формат: MKV Качество: WEBRip 720p Видео: MPEG-4 AVC, ~ 3500 Кбит/с, 1280x536, 25 кадр/с Звук : AC3, 6 ch, 384 Кбит/с RUS Субтитры: Нет
[+] МИ General Unique ID : 230882084868080473680625693875240184696 (0xADB245A77E5AED949543C3869B142B78) Complete name : G:Varshava.21.S01.2024.WEB-DLRip.720p.ExKinoRayVarshava.21.S01.E01.2024.WEB-DLRip.720p.ExKinoRay.mkv Format : Matroska Format version : Version 4 File size : 1.25 GiB Duration : 46 min 3 s Overall bit rate : 3 886 kb/s Encoded date : UTC 2024-06-10 10:32:18 Writing application : mkvmerge v56.1.0 ('My Friend') 64-bit Writing library : libebml v1.4.2 + libmatroska v1.6.4 Video ID : 1 Format : AVC Format/Info : Advanced Video Codec Format profile : High@L4.1 Format settings : CABAC / 9 Ref Frames Format settings, CABAC : Yes Format settings, Reference frames : 9 frames Codec ID : V_MPEG4/ISO/AVC Duration : 46 min 3 s Bit rate : 3 500 kb/s Width : 1 280 pixels Height : 536 pixels Display aspect ratio : 2.40:1 Frame rate mode : Constant Frame rate : 25.000 FPS Color space : YUV Chroma subsampling : 4:2:0 Bit depth : 8 bits Scan type : Progressive Bits/(Pixel*Frame) : 0.204 Stream size : 1.13 GiB (90%) Writing library : x264 core 146 r2538 121396c Encoding settings : cabac=1 / ref=9 / deblock=1:-3:-3 / analyse=0x3:0x113 / me=umh / subme=11 / psy=1 / psy_rd=1.00:0.02 / mixed_ref=1 / me_range=32 / chroma_me=1 / trellis=2 / 8x8dct=1 / cqm=0 / deadzone=21,11 / fast_pskip=1 / chroma_qp_offset=-3 / threads=24 / lookahead_threads=8 / sliced_threads=0 / nr=0 / decimate=0 / interlaced=0 / bluray_compat=0 / constrained_intra=0 / bframes=10 / b_pyramid=2 / b_adapt=2 / b_bias=0 / direct=3 / weightb=1 / open_gop=0 / weightp=2 / keyint=250 / keyint_min=25 / scenecut=40 / intra_refresh=0 / rc_lookahead=60 / rc=2pass / mbtree=1 / bitrate=3500 / ratetol=1.0 / qcomp=0.60 / qpmin=0 / qpmax=69 / qpstep=4 / cplxblur=20.0 / qblur=0.5 / vbv_maxrate=14000 / vbv_bufsize=14000 / nal_hrd=none / filler=0 / ip_ratio=1.40 / aq=3:1.40 Language : Russian Default : Yes Forced : No Color range : Limited Color primaries : BT.709 Transfer characteristics : BT.709 Matrix coefficients : BT.709 Audio ID : 2 Format : AC-3 Format/Info : Audio Coding 3 Commercial name : Dolby Digital Codec ID : A_AC3 Duration : 46 min 3 s Bit rate mode : Constant Bit rate : 384 kb/s Channel(s) : 6 channels Channel layout : L R C LFE Ls Rs Sampling rate : 48.0 kHz Frame rate : 31.250 FPS (1536 SPF) Compression mode : Lossy Stream size : 127 MiB (10%) Language : Russian Service kind : Complete Main Default : Yes Forced : No
[+] Скриншоты
Релиз от:

Всего файлов в раздаче: 12 
Varshava.21.S01.E01.2024.WEB-DLRip.720p.ExKinoRay.mkv1.25 GB
Varshava.21.S01.E02.2024.WEB-DLRip.720p.ExKinoRay.mkv1.20 GB
Varshava.21.S01.E03.2024.WEB-DLRip.720p.ExKinoRay.mkv1.25 GB
Varshava.21.S01.E04.2024.WEB-DLRip.720p.ExKinoRay.mkv1.25 GB
Varshava.21.S01.E05.2024.WEB-DLRip.720p.ExKinoRay.mkv1.30 GB
Varshava.21.S01.E06.2024.WEB-DLRip.720p.ExKinoRay.mkv1.21 GB
Varshava.21.S01.E07.2024.WEB-DLRip.720p.ExKinoRay.mkv1.30 GB
Varshava.21.S01.E08.2024.WEB-DLRip.720p.ExKinoRay.mkv1.27 GB
Varshava.21.S01.E09.2024.WEB-DLRip.720p.ExKinoRay.mkv1.23 GB
Varshava.21.S01.E10.2024.WEB-DLRip.720p.ExKinoRay.mkv1.26 GB
Показать все файлы

Похожие раздачи по запросу - Варшава
2024-07-04 magnet Варшава'21 / Рашн Гейт [S01] (2024) WEBRip-AVC от Generalfilm | КПК 2.47 GB ↑ 0 ↓ 0
2024-07-03 magnet Варшава 21 / Рашн Гейт [01-11 из 12] (2024) WEBRip 720p от ExKinoRay 13.83 GB ↑ 0 ↓ 0
2024-07-03 magnet Варшава 21 / Серии: 1-12 из 12 [2023, детектив, WEBRip-AVC] от Aleksan55 6.98 GB ↑ 0 ↓ 0
2024-07-03 magnet Варшава'21 / Рашн Гейт [S01] (2024) WEBRip от Files-х 7.61 GB ↑ 0 ↓ 0
2024-07-03 magnet Варшава 21 / Рашн Гейт [S01] (2024) WEBRip-AVC от Files-х 7.97 GB ↑ 0 ↓ 0
2024-07-03 magnet Варшава'21 / Рашн Гейт [S01] (2024) WEBRip 1080p 20.58 GB ↑ 0 ↓ 0
2024-07-03 magnet Варшава'21 / Рашн Гейт [01х01-11 из 12] (2024) WEBRip от Files-х 6.96 GB ↑ 0 ↓ 0

Комментарии


Зарегистрируйтесь чтобы добавить комментарий
Торрент клиент
byTorrent - программа для загрузки торрент-файлов.

Скачать byTorrent.exe (1,5 МБ)

Скачать byTorrent.zip (0,6 МБ)

Поддержи torrent.by
российских рублей
(300 российских рублей это 4$)

Обратная связь rss

End game ©