↑↓torrent.by
Поиск
Логин:  Регистрация
Пароль:

Убойный отпуск / Третий в постели [01-03 из 07] (2024) WEB-DLRip-AVC от ExKinoRay

download Скачать торрент-файл   magnet Магнитная ссылка Размер: 868.33 MB Добавлен: 2024-07-04 11:00
Пиры будут получены из сети DHT
Последний сидер был замечен 2024-07-04 18:00
Информация о фильме Оригинальное название: Убойный отпуск / Третий в постели Год выхода: 2024 Жанр: Комедия, детектив Режиссер: Сергей Дьячковский В ролях: Анна Михалкова, Александр Робак, Любовь Аксёнова, Степан Девонин, Денис Кузнецов, Сергей Дьячковский, Алим Хоконов О фильме: Люба и Рома устали от брака, но их беременная дочь Настя и зять Степа решают помочь родителям сохранить семью и дарят тур в пятизвездочный отель в Турции. Те соглашаются, чтобы не расстраивать дочку, но ни о каком восстановлении отношений не думают. Наоборот, Люба вдрызг ссорится с Ромой ещё в самолёте, требует развода, на первом же ужине начинает флиртовать с красавцем-турком, выпивает лишнего, а утром обнаруживает у себя в постели труп. Страна: Россия Студия: Кинокомпания "Lookfilm", KION Продолжительность: 3 x ~ 00:31:59 Формат: MKV Качество: WEBRip-AVC Видео: MPEG-4 AVC, 720х404, 25.000 fps, 1350 Kbps, 0.186 bit/pixel Аудио: 48 kHz, AC3, 2/0 ch, ~256.00 kbps avg RUS Субтитры: Русские (Full (Enigma))
[+] МИGeneral Unique ID : 194556591652323161475357345642362816542 (0x925E3C901EFDF18580E38353473DC81E) Complete name : D:Uboyniy.otpusk.S01.2024.WEB-DL.AVC.ExKinoRayUboyniy.otpusk.S01.E01.2024.WEB-DL.AVC.ExKinoRay.mkv Format : Matroska Format version : Version 2 File size : 353 MiB Duration : 31 min Overall bit rate : 1 544 kb/s Movie name : Убойный отпуск S01E01 (2024) from ExKinoRay Encoded date : UTC 2024-07-03 01:46:07 Writing application : mkvmerge v5.6.0 ('Kenya Kane') built on May 27 2012 16:44:04 Writing library : libebml v1.2.3 + libmatroska v1.3.0 Video ID : 1 Format : AVC Format/Info : Advanced Video Codec Format profile : High@L4.1 Format settings, CABAC : Yes Format settings, ReFrames : 10 frames Codec ID : V_MPEG4/ISO/AVC Duration : 31 min Bit rate : 1 350 kb/s Width : 720 pixels Height : 404 pixels Display aspect ratio : 16:9 Frame rate mode : Constant Frame rate : 25.000 FPS Color space : YUV Chroma subsampling : 4:2:0 Bit depth : 8 bits Scan type : Progressive Bits/(Pixel*Frame) : 0.186 Stream size : 302 MiB (86%) Writing library : x264 core 164 r3107+58M ae98796 t_mod_New Encoding settings : cabac=1 / ref=10 / deblock=1:-2:-2 / analyse=0x3:0x133 / me=umh / subme=10 / psy=1 / fade_compensate=0.00 / psy_rd=1.00:0.00 / mixed_ref=1 / me_range=32 / chroma_me=1 / trellis=2 / 8x8dct=1 / cqm=0 / deadzone=21,11 / fast_pskip=0 / chroma_qp_offset=-2 / threads=12 / lookahead_threads=3 / sliced_threads=0 / nr=0 / decimate=0 / interlaced=0 / bluray_compat=0 / constrained_intra=0 / fgo=0 / bframes=10 / b_pyramid=2 / b_adapt=2 / b_bias=0 / direct=3 / weightb=1 / open_gop=0 / weightp=2 / keyint=250 / keyint_min=25 / scenecut=40 / intra_refresh=0 / rc=2pass / mbtree=0 / bitrate=1350 / ratetol=1.0 / qcomp=0.60 / qpmin=0:0:0 / qpmax=69:69:69 / qpstep=4 / cplxblur=20.0 / qblur=0.5 / ip_ratio=1.40 / pb_ratio=1.30 / aq=1:1.00 / aq-sensitivity=10.00 / aq-factor=1.00:1.00:1.00 / aq2=0 / aq3=0 Default : Yes Forced : No Audio ID : 2 Format : AC-3 Format/Info : Audio Coding 3 Mode extension : CM (complete main) Format settings, Endianness : Big Codec ID : A_AC3 Duration : 31 min Bit rate mode : Constant Bit rate : 192 kb/s Channel(s) : 2 channels Channel positions : Front: L R Sampling rate : 48.0 kHz Frame rate : 31.250 FPS (1536 spf) Compression mode : Lossy Stream size : 43.9 MiB (12%) Language : Russian Default : Yes Forced : No Text ID : 3 Format : UTF-8 Codec ID : S_TEXT/UTF8 Codec ID/Info : UTF-8 Plain Text Title : Full (Enigma) Language : Russian Default : No Forced : No
Релиз от: Автор релиза:

Всего файлов в раздаче: 3 
Uboyniy.otpusk.S01.E01.2024.WEB-DL.AVC.ExKinoRay.mkv353.15 MB
Uboyniy.otpusk.S01.E02.2024.WEB-DL.AVC.ExKinoRay.mkv265.61 MB
Uboyniy.otpusk.S01.E03.2024.WEB-DL.AVC.ExKinoRay.mkv249.57 MB

Похожие раздачи по запросу - Убойный
Сегодня magnet Убойный отпуск / Третий в постели [S01] (2024) WEB-DL 1080p 5.33 GB ↑ 0 ↓ 1
Сегодня magnet Убойный отпуск / Третий в постели [S01] (2024) WEB-DL 720p от ExKinoRay 4.50 GB ↑ 0 ↓ 0
Сегодня magnet Убойный отпуск / Третий в постели [S01] (2024) WEB-DL 2160p от ExKinoRay | 4K | SDR 20.25 GB ↑ 0 ↓ 0
Вчера magnet Убойный отпуск / Третий в постели [01-05 из 07] (2024) WEB-DL 2160p от ExKinoRay | 4K | SDR 15.32 GB ↑ 0 ↓ 0
2024-07-20 magnet Убойный отпуск / Третий в постели [01х01-05 из 07] (2024) WEB-DLRip-AVC от Generalfilm | КПК 585.52 MB ↑ 0 ↓ 0
2024-07-20 magnet Убойный отпуск / Третий в постели [01-05 из 07] (2024) WEB-DLRip от Files-x 1.58 GB ↑ 0 ↓ 1
2024-07-18 magnet Убойный отпуск / Третий в постели [01-05 из 07] (2024) WEB-DL 720p от ExKinoRay 3.39 GB ↑ 1 ↓ 0

Комментарии


Зарегистрируйтесь чтобы добавить комментарий
Торрент клиент
byTorrent - программа для загрузки торрент-файлов.

Скачать byTorrent.exe (1,5 МБ)

Скачать byTorrent.zip (0,6 МБ)

Поддержи torrent.by
российских рублей
(300 российских рублей это 4$)

Обратная связь rss

End game ©