↑↓torrent.by
Поиск
Логин:  Регистрация
Пароль:

Вкус страха / Tastes of Horror / Goedammanchan / Goe-dam-man-chan (2023) WEB-DL 1080p | P

download Скачать торрент-файл   magnet Магнитная ссылка Размер: 4.85 GB Добавлен: 2024-07-04 11:00
Пиры будут получены из сети DHT
Последний сидер был замечен 2024-07-09 17:40
Информация о фильме Название: Вкус страха Оригинальное название: Tastes of Horror / Goedammanchan / Goe-dam-man-chan Год выхода: 2023 Жанр: ужасы Режиссер: Ан Сан-хун, Юн Ын-гён, Чхэ Ё-джун В ролях: Чан Сын-ён, О Сын-хи, Чан Е-ын, Щин Ын-су, Ким Хо-джон, Ли Сор-а, Ким Тхэ-хун, Чо Джэ-юн, Сон Сам-дон, Чхэ Ё-джун О фильме: Шесть жутких историй. Жители мегаполиса сталкиваются с призраками и исполняющей желания одноглазой ведьмой, девушка попадает на странную реабилитацию, а две биджейши устраивают соревнование в прямом эфире. Страна: Корея Южная Студия: INEW Company, Studio Toyou, The Contents On, Toyou's Dream Продолжительность: 01:57:58 Перевод: Профессиональный (многоголосый закадровый) Paragraph Media Файл Качество: WEB-DL 1080p Видео: 1920x804 at 24 fps, MPEG-4 AVC, ~5000 kbps avg Аудио 1: 48 kHz, E-AC3, 3/2 (L,C,R,l,r) + LFE ch, ~448 kbps avg | MVO, Paragraph Media Аудио 2: 48 kHz, AAC, 3/2 (L,C,R,l,r) + LFE ch, ~512 kbps avg | Корейский Субтитры: русские (Forced, Full) Семпл
[+] Скриншоты
[+] MediaInfoОбщее Уникальный идентификатор : 68549341218729569713260171472320693239 (0x33921F75DB973BEFAFAE9202AC8183F7) Полное имя : Goedammanchan.2023.WEB-DL.1080p-AsiaOne-Kyle.mkv Формат : Matroska Версия формата : Version 4 Размер файла : 4,85 Гбайт Продолжительность : 1 ч. 57 мин. Общий битрейт : 5 890 Кбит/сек Частота кадров : 24,000 кадра/сек Дата кодирования : 2024-07-03 23:44:53 UTC Программа кодирования : mkvmerge v85.0 ('Shame For You') 64-bit Библиотека кодирования : libebml v1.4.5 + libmatroska v1.7.1 Видео Идентификатор : 1 Формат : AVC Формат/Информация : Advanced Video Codec Профиль формата : High@L4 Настройки формата : CABAC / 3 Ref Frames Параметр CABAC формата : Да Параметр RefFrames формата : 3 кадра Идентификатор кодека : V_MPEG4/ISO/AVC Продолжительность : 1 ч. 57 мин. Битрейт : 5 000 Кбит/сек Ширина : 1 920 пикселей Высота : 804 пикселя Соотношение сторон дисплея : 2,39:1 Режим частоты кадров : Постоянный Частота кадров : 24,000 кадра/сек Цветовое пространство : YUV Цветовая субдискретизация : 4:2:0 Битовая глубина : 8 бит Тип развёртки : Прогрессивная Бит/(Пиксели*Кадры) : 0.135 Размер потока : 4,06 Гбайт (84%) Библиотека кодирования : x264 core 164 r3095 baee400 Параметры библиотеки кодирования : cabac=1 / ref=4 / deblock=1:-1:-1 / analyse=0x3:0x133 / me=umh / subme=9 / psy=1 / psy_rd=0.40:1.00 / mixed_ref=1 / me_range=24 / chroma_me=1 / trellis=0 / 8x8dct=1 / cqm=0 / deadzone=21,11 / fast_pskip=1 / chroma_qp_offset=-2 / threads=3 / lookahead_threads=1 / sliced_threads=0 / nr=0 / decimate=1 / interlaced=0 / bluray_compat=0 / stitchable=1 / constrained_intra=0 / bframes=8 / b_pyramid=1 / b_adapt=0 / b_bias=0 / direct=3 / weightb=1 / open_gop=0 / weightp=2 / keyint=72 / keyint_min=37 / scenecut=0 / intra_refresh=0 / rc_lookahead=40 / rc=2pass / mbtree=1 / bitrate=5000 / ratetol=1.0 / qcomp=0.80 / qpmin=1 / qpmax=69 / qpstep=4 / cplxblur=20.0 / qblur=0.5 / vbv_maxrate=7500 / vbv_bufsize=10000 / nal_hrd=none / filler=0 / ip_ratio=1.40 / aq=1:1.00 По умолчанию : Да Принудительно : Нет Цветовой диапазон : Limited Основные цвета : BT.709 Характеристики трансфера : BT.709 Коэффициенты матрицы : BT.709 Аудио #1 Идентификатор : 2 Формат : E-AC-3 Формат/Информация : Enhanced AC-3 Коммерческое название : Dolby Digital Plus Идентификатор кодека : A_EAC3 Продолжительность : 1 ч. 57 мин. Вид битрейта : Постоянный Битрейт : 448 Кбит/сек Канал(-ы) : 6 каналов Расположение каналов : L R C LFE Ls Rs Частота дискретизации : 48,0 КГц Частота кадров : 31,250 кадров/сек (1536 SPF) Метод сжатия : С потерями Размер потока : 378 Мбайт (8%) Заголовок : Russian Язык : Русский Вид сервиса : Complete Main По умолчанию : Да Принудительно : Нет Нормализация звука речи : -23 dB compr : -0.28 dB dmixmod : Lo/Ro ltrtcmixlev : -3.0 dB ltrtsurmixlev : -3.0 dB lorocmixlev : -3.0 dB lorosurmixlev : -3.0 dB dialnorm_Average : -23 dB dialnorm_Minimum : -23 dB dialnorm_Maximum : -23 dB Аудио #2 Идентификатор : 3 Формат : AAC LC Формат/Информация : Advanced Audio Codec Low Complexity Идентификатор кодека : A_AAC-2 Продолжительность : 1 ч. 57 мин. Битрейт : 512 Кбит/сек Канал(-ы) : 6 каналов Расположение каналов : C L R Ls Rs LFE Частота дискретизации : 48,0 КГц Частота кадров : 46,875 кадров/сек (1024 SPF) Метод сжатия : С потерями Размер потока : 432 Мбайт (9%) Заголовок : Korean Язык : Корейский По умолчанию : Нет Принудительно : Нет Текст #1 Идентификатор : 4 Формат : UTF-8 Идентификатор кодека : S_TEXT/UTF8 Идентификатор кодека/Информация : UTF-8 Plain Text Продолжительность : 1 ч. 53 мин. Битрейт : 8 бит/сек Частота кадров : 0,018 кадр/сек Число элементов : 124 Размер потока : 7,37 КиБ (0%) Заголовок : Russian, Forced Язык : Русский По умолчанию : Да Принудительно : Нет Текст #2 Идентификатор : 5 Формат : UTF-8 Идентификатор кодека : S_TEXT/UTF8 Идентификатор кодека/Информация : UTF-8 Plain Text Продолжительность : 1 ч. 51 мин. Битрейт : 50 бит/сек Частота кадров : 0,150 кадр/сек Число элементов : 1007 Размер потока : 41,7 КиБ (0%) Заголовок : Russian, Full Язык : Русский По умолчанию : Нет Принудительно : Нет
Релиз от: by Kyle

Всего файлов в раздаче: 1 
Goedammanchan.2023.WEB-DL.1080p-AsiaOne-Kyle.mkv4.85 GB

Похожие раздачи по запросу - Вкус
2024-07-11 magnet Вкус счастья / Umami (2022) WEB-DLRip-AVC от DoMiNo & селезень | D 1.37 GB ↑ 0 ↓ 0
2024-07-04 magnet Вкус страха / Tastes of Horror / Goedammanchan / Goe-dam-man-chan (2023) WEB-DLRip от DoMiNo & селезень | P | Paragraph Media 1.46 GB ↑ 1 ↓ 0
2021-07-02 magnet Спирина А.В. - Советская кухня по ГОСТу и не только… Вкус нашего детства! (2019) PDF 61.72 MB ↑ 0 ↓ 0

Комментарии


Зарегистрируйтесь чтобы добавить комментарий
Торрент клиент
byTorrent - программа для загрузки торрент-файлов.

Скачать byTorrent.exe (1,5 МБ)

Скачать byTorrent.zip (0,6 МБ)

Поддержи torrent.by
российских рублей
(300 российских рублей это 4$)

Обратная связь rss

End game ©