↑↓torrent.by
Поиск
Логин:  Регистрация
Пароль:

Криминальный город. Возмездие / Beomjoe dosi 4 / The Roundup: Punishment (2024) WEB-DL 1080p | L | RGB

download Скачать торрент-файл   magnet Магнитная ссылка Размер: 6.11 GB Раздают: 79 Качают: 6 Добавлен: il68k 2024-07-04 16:45
Пиры будут получены из сети DHT
Последний сидер был замечен сегодня в 19:26
Информация о фильме Название: Криминальный город. Возмездие Оригинальное название: Beomjoe dosi 4 / The Roundup: Punishment Год выхода: 2024 Жанр: криминал, боевик, детектив Режиссер: Хо Мён-хэн В ролях: Ма Дон-сок, Ким Му-ёль, Ли Дон-хви, Пак Чи-хван, Ли Бом-су, Ким Мин-джэ, Ли Джу-бин, Хён Бон-щик, Ли Джи-хун О фильме: Детектив Ма Сок-то создал отдел по борьбе с киберпреступлениями и пытается поймать организаторов крупнейшего в стране нелегального онлайн-казино. Страна: Южная Корея Студия: ABO Entertainment, B.A. Entertainment, Big Punch Pictures, Hong Film Продолжительность: 01:49:12 Перевод: Любительский (многоголосый закадровый) | RGB | 18+ Внимание! Ненормативная лексика! Файл Формат: MKV Качество: WEB-DL 1080p Видео: AVC/H.264, 1920x1080, ~7822 Kbps, 24.000 fps Аудио: AC3, 48 kHz, 2 ch, 192 Kbps - русский Субтитры: отсутствуют Семпл
[+] Скриншоты
[+] MediaInfo General Unique ID: 324119314749969048137733623082168258599 (0xF3D71C00884AF9A91D100A6E6F2E9027) Complete name: E:\RGB\The.Roundup.Punishment.2024.1080p.WEB-DL.AAC2.0.H.264.MVO-TIK-RGB.mkv Format: Matroska Format version: Version 4 File size: 6.11 GiB Duration: 1 h 49 min Overall bit rate mode: Variable Overall bit rate: 8 016 kb/s Frame rate: 24.000 FPS Movie name: RGB Encoded date: 2024-07-04 11:23:05 UTC Writing application: mkvmerge v82.0 ('I'm The President') 64-bit Writing library: libebml v1.4.5 + libmatroska v1.7.1 Video ID: 1 Format: AVC Format/Info: Advanced Video Codec Format profile: Main@L5 Format settings: CABAC / 6 Ref Frames Format settings, CABAC: Yes Format settings, Reference: 6 frames Format settings, GOP: M=1, N=30 Codec ID: V_MPEG4/ISO/AVC Duration: 1 h 49 min Bit rate mode: Variable Bit rate: 7 822 kb/s Maximum bit rate: 108 Mb/s Width: 1 920 pixels Height: 1 080 pixels Display aspect ratio: 16:9 Frame rate mode: Constant Frame rate: 24.000 FPS Color space: YUV Chroma subsampling: 4:2:0 Bit depth: 8 bits Scan type: Progressive Bits/(Pixel*Frame): 0.157 Stream size: 5.97 GiB (98%) Language: English Default: Yes Forced: No Audio ID: 2 Format: AC-3 Format/Info: Audio Coding 3 Commercial name: Dolby Digital Codec ID: A_AC3 Duration: 1 h 49 min Bit rate mode: Constant Bit rate: 192 kb/s Channel(s): 2 channels Channel layout: L R Sampling rate: 48.0 kHz Frame rate: 31.250 FPS (1536 SPF) Compression mode: Lossy Delay relative to video: -21 ms Stream size: 150 MiB (2%) Title: MVO Language: Russian Service kind: Complete Main Default: Yes Forced: No Dialog Normalization: -31 dB compr: 4.22 dB mixlevel: 285 dB roomtyp: 3 ltrtcmixlev: -3.0 dB ltrtsurmixlev: -3.0 dB lorocmixlev: -3.0 dB lorosurmixlev: -3.0 dB dialnorm_Average: -31 dB dialnorm_Minimum: -31 dB dialnorm_Maximum: -31 dB
Релиз от: RGB

Всего файлов в раздаче: 1 
The.Roundup.Punishment.2024.1080p.WEB-DL.AAC2.0.H.264.MVO-TIK-RGB.mkv6.11 GB

Похожие раздачи по запросу - Криминальный город
Сегодня magnet Город золотого паука / Huang jin zhi zhu cheng / Golden Spider City (2022) WEB-DL 1080p | D 3.33 GB ↑ 0 ↓ 0
Вчера magnet Пётр Жгулёв - Цикл «Город гоблинов» [11 книг] (2019-2024) FB2 20.25 MB ↑ 0 ↓ 0
Вчера magnet Дэшил Хэммет - Кошмарный город [сборник] (2024) MP3 476.06 MB ↑ 0 ↓ 0
2024-07-22 magnet Ночь и город / Night and the City (1950) BDRip 720p от msltel | P2 6.28 GB ↑ 0 ↓ 0
2024-07-22 magnet Мой шпион: Вечный город / My Spy: The Eternal City (2024) WEB-DL 1080p от JNS82 | L | LE-Production 5.84 GB ↑ 1 ↓ 5
2024-07-22 magnet Мой шпион: Вечный город / My Spy: The Eternal City (2024) WEB-DLRip-AVC от ExKinoRay | P2 | ViruseProject 745.01 MB ↑ 0 ↓ 1
2024-07-20 magnet Мой шпион: Вечный город / My Spy: The Eternal City (2024) WEB-DLRip 720p от DoMiNo & селезень | P2 | ViruseProject 2.20 GB ↑ 0 ↓ 0

Комментарии


Зарегистрируйтесь чтобы добавить комментарий
Торрент клиент
byTorrent - программа для загрузки торрент-файлов.

Скачать byTorrent.exe (1,5 МБ)

Скачать byTorrent.zip (0,6 МБ)

Поддержи torrent.by
российских рублей
(300 российских рублей это 4$)

Обратная связь rss

End game ©