↑↓torrent.by
Поиск
Логин:  Регистрация
Пароль:

Газонокосильщик / The Lawnmower Man (1992) BDRip-HEVC 1080p от RIPS CLUB | P2, A | Director's Cut

download Скачать торрент-файл   magnet Магнитная ссылка Размер: 13.85 GB Добавлен: 2024-07-04 17:00
Пиры будут получены из сети DHT
Последний сидер был замечен 2024-07-04 21:06
Название: Газонокосильщик Оригинальное название: The Lawnmower Man Год производства: 1992 Премьера в мире: 6 марта 1992 Производство: Великобритания, Япония / Allied Vision Ltd., Fuji Eight Company Ltd., Lane Pringle Productions Жанр: ужасы, фантастика Режиссёр: Бретт Леонард В ролях: Джефф Фэйи, Пирс Броснан, Дженни Райт, Марк Бринглсон, Джеффри Льюис, Джереми Слейт, Дин Норрис, Коллин Коффи, Джим Лэндис, Трой Эванс О фильме: Молодой талантливый учёный Трэйс ставит над умственно неполноценным косильщиком лужаек Джоубом эксперименты с использованием высоких компьютерных технологий в комбинации с наркотиками. Трэйс внедряет Джоуба в виртуальную реальность - трёхмерный компьютерный мир. Учёному удаётся развить умственные способности вчерашнего недоумка до супергения. Но в ход эксперимента тайно вмешиваются военные, и испытуемый превращается в сверхинтеллектуального монстра-психопата в человеческом облике, у которого возникают претензии на мировое господство. Продолжительность: 02:20:53 Перевод: двухголосый профессиональный, авторский Качество: BDRip-HEVC 1080p Кодек: HEVC (x265) Видео: 1920x1036 (1.85:1), 12,6 Мбит/сек, HEVC (Main10@L.4.1@High) 10 бит Звук: Аудио1: AC3, 6 ch, 640 Kbps - Русский, DVO (R5) Аудио2: AC3, 2 ch, 192 Kbps - Русский, AVO (Андрей Гаврилов) Аудио3: AC3, 6 ch, 640 Kbps - Английский Субтитры: русские, английские Навигация по главам: Есть
[+] Лог (x265 info) + Mediainfo x265 : frame I: 856, Avg QP:18.04 kb/s: 30015.26 x265 : frame P: 38080, Avg QP:19.37 kb/s: 23248.88 x265 : frame B: 163738, Avg QP:21.35 kb/s: 10036.97 x265 : Weighted P-Frames: Y:11.6% UV:8.6% x265 : Weighted B-Frames: Y:8.7% UV:5.3% x265 : encoded 202674 frames in 170017.51s (1.19 fps), 12603.71 kb/s, Avg QP:20.96 Общее Уникальный идентификатор : 166172718215940093388944214349426675411 (0x7D03B38EA346FC90F44D50E7D1174ED3) Полное имя : .Газонокосильщик.The.Lawnmower.Man.1992.Director's.Cut.BDRip-HEVC.1080p.mkv Формат : Matroska Версия формата : Version 4 Размер файла : 13,9 Гбайт Продолжительность : 2 ч. 20 м. Общий поток : 14,1 Мбит/сек Частота кадров : 23,976 кадра/сек Дата кодирования : 2023-05-14 05:48:30 UTC Программа кодирования : mkvmerge v76.0 ('Celebration') 64-bit Библиотека кодирования : libebml v1.4.4 + libmatroska v1.7.1 Видео Идентификатор : 1 Формат : HEVC Формат/Информация : High Efficiency Video Coding Профиль формата : Main 10@L4.1@High Идентификатор кодека : V_MPEGH/ISO/HEVC Продолжительность : 2 ч. 20 м. Битрейт : 12,6 Мбит/сек Ширина : 1 920 пикселей Высота : 1 036 пикселей Соотношение сторон : 1,85:1 Режим частоты кадров : Постоянный Частота кадров : 23,976 (24000/1001) кадра/сек Цветовое пространство : YUV Субдискретизация насыщенности : 4:2:0 Битовая глубина : 10 бит Бит/(Пиксели*Кадры) : 0.264 Размер потока : 12,4 Гбайт (90%) Заголовок : The Lawnmower Man / Rip by OldGamer Библиотека кодирования : x265 3.5+86-6da609e41: 10bit Настройки программы : cpuid=1111039 / frame-threads=4 / numa-pools=16 / wpp / no-pmode / no-pme / no-psnr / no-ssim / log-level=2 / input-csp=1 / input-res=1920x1036 / interlace=0 / total-frames=202674 / level-idc=41 / high-tier=1 / uhd-bd=0 / ref=5 / no-allow-non-conformance / no-repeat-headers / annexb / no-aud / no-eob / no-eos / no-hrd / info / hash=0 / temporal-layers=0 / open-gop / min-keyint=23 / keyint=240 / gop-lookahead=0 / bframes=16 / b-adapt=2 / b-pyramid / bframe-bias=0 / rc-lookahead=40 / lookahead-slices=0 / scenecut=40 / no-hist-scenecut / radl=0 / no-splice / no-intra-refresh / ctu=32 / min-cu-size=8 / rect / amp / max-tu-size=32 / tu-inter-depth=4 / tu-intra-depth=4 / limit-tu=1 / rdoq-level=2 / dynamic-rd=0.00 / no-ssim-rd / signhide / no-tskip / nr-intra=0 / nr-inter=0 / no-constrained-intra / no-strong-intra-smoothing / max-merge=5 / limit-refs=3 / no-limit-modes / me=3 / subme=7 / merange=57 / temporal-mvp / no-frame-dup / no-hme / weightp / weightb / no-analyze-src-pics / deblock=-2:-2 / no-sao / no-sao-non-deblock / rd=6 / selective-sao=0 / no-early-skip / no-rskip / no-fast-intra / no-tskip-fast / no-cu-lossless / b-intra / no-splitrd-skip / rdpenalty=0 / psy-rd=2.00 / psy-rdoq=1.00 / no-rd-refine / no-lossless / cbqpoffs=0 / crqpoffs=0 / rc=crf / crf=19.5 / qcomp=0.60 / qpstep=4 / stats-write=0 / stats-read=0 / vbv-maxrate=50000 / vbv-bufsize=50000 / vbv-init=0.9 / min-vbv-fullness=50.0 / max-vbv-fullness=80.0 / crf-max=0.0 / crf-min=0.0 / ipratio=1.40 / pbratio=1.30 / aq-mode=1 / aq-strength=1.00 / no-cutree / zone-count=1 / zones: / start-frame=194244 / end-frame=202674 / qp=36 / no-strict-cbr / qg-size=32 / no-rc-grain / qpmax=69 / qpmin=0 / no-const-vbv / sar=1 / overscan=0 / videoformat=5 / range=0 / colorprim=2 / transfer=2 / colormatrix=2 / chromaloc=0 / display-window=0 / cll=0,0 / min-luma=0 / max-luma=1023 / log2-max-poc-lsb=8 / vui-timing-info / vui-hrd-info / slices=1 / no-opt-qp-pps / no-opt-ref-list-length-pps / no-multi-pass-opt-rps / scenecut-bias=0.00 / no-opt-cu-delta-qp / no-aq-motion / no-hdr10 / no-hdr10-opt / no-dhdr10-opt / no-idr-recovery-sei / analysis-reuse-level=0 / analysis-save-reuse-level=0 / analysis-load-reuse-level=0 / scale-factor=0 / refine-intra=0 / refine-inter=0 / refine-mv=1 / refine-ctu-distortion=0 / no-limit-sao / ctu-info=0 / no-lowpass-dct / refine-analysis-type=0 / copy-pic=1 / max-ausize-factor=1.0 / no-dynamic-refine / no-single-sei / no-hevc-aq / no-svt / no-field / qp-adaptation-range=1.00 / scenecut-aware-qp=0conformance-window-offsets / right=0 / bottom=0 / decoder-max-rate=0 / no-vbv-live-multi-pass / no-mcstf / no-sbrc Язык : English Default : Да Forced : Нет Аудио #1 Идентификатор : 2 Формат : AC-3 Формат/Информация : Audio Coding 3 Коммерческое название : Dolby Digital Идентификатор кодека : A_AC3 Продолжительность : 2 ч. 20 м. Вид битрейта : Постоянный Битрейт : 640 Кбит/сек Каналы : 6 каналов Channel layout : L R C LFE Ls Rs Частота : 48,0 КГц Частота кадров : 31,250 кадров/сек (1536 SPF) Метод сжатия : С потерями Размер потока : 645 Мбайт (5%) Заголовок : DVO (R5) Язык : Russian Service kind : Complete Main Default : Да Forced : Нет Аудио #2 Идентификатор : 3 ID in the original source medium : 4353 (0x1101) Формат : AC-3 Формат/Информация : Audio Coding 3 Коммерческое название : Dolby Digital Идентификатор кодека : A_AC3 Продолжительность : 2 ч. 20 м. Вид битрейта : Постоянный Битрейт : 192 Кбит/сек Каналы : 2 канала Channel layout : L R Частота : 48,0 КГц Частота кадров : 31,250 кадров/сек (1536 SPF) Метод сжатия : С потерями Размер потока : 193 Мбайт (1%) Заголовок : AVO (Андрей Гаврилов) Язык : Russian Service kind : Complete Main Default : Нет Forced : Нет Носитель оригинала : Blu-ray Аудио #3 Идентификатор : 4 Формат : AC-3 Формат/Информация : Audio Coding 3 Коммерческое название : Dolby Digital Идентификатор кодека : A_AC3 Продолжительность : 2 ч. 20 м. Вид битрейта : Постоянный Битрейт : 640 Кбит/сек Каналы : 6 каналов Channel layout : L R C LFE Ls Rs Частота : 48,0 КГц Частота кадров : 31,250 кадров/сек (1536 SPF) Метод сжатия : С потерями Размер потока : 645 Мбайт (5%) Язык : English Service kind : Complete Main Default : Нет Forced : Нет Текст #1 Идентификатор : 5 Формат : UTF-8 Идентификатор кодека : S_TEXT/UTF8 Идентификатор кодека/Информация : UTF-8 Plain Text Продолжительность : 2 ч. 14 м. Битрейт : 76 бит/сек Частота кадров : 0,170 кадр/сек Count of elements : 1368 Размер потока : 75,3 Кбайт (0%) Язык : Russian Default : Нет Forced : Нет Текст #2 Идентификатор : 6 Формат : UTF-8 Идентификатор кодека : S_TEXT/UTF8 Идентификатор кодека/Информация : UTF-8 Plain Text Продолжительность : 2 ч. 13 м. Битрейт : 51 бит/сек Частота кадров : 0,207 кадр/сек Count of elements : 1665 Размер потока : 50,3 Кбайт (0%) Язык : English Default : Нет Forced : Нет Меню 00:00:00.000 : en:Chapter 01 00:11:54.880 : en:Chapter 02 00:23:42.629 : en:Chapter 03 00:36:34.650 : en:Chapter 04 00:48:18.395 : en:Chapter 05 00:58:57.825 : en:Chapter 06 01:12:10.784 : en:Chapter 07 01:24:11.296 : en:Chapter 08 01:36:12.725 : en:Chapter 09 01:46:46.358 : en:Chapter 10 01:57:09.313 : en:Chapter 11 02:07:19.506 : en:Chapter 12
[+] Скриншоты
Релиз от: OldGamer

Всего файлов в раздаче: 1 
Газонокосильщик.The.Lawnmower.Man.1992.Director's.Cut.BDRip-HEVC.1080p.mkv13.85 GB

Похожие раздачи по запросу - Газонокосильщик
2024-07-02 magnet Газонокосильщик / The Lawnmower Man (1992) BDRip-AVC от DoMiNo | P | Режиссерская версия 4.46 GB ↑ 0 ↓ 0
2024-07-02 magnet Газонокосильщик / The Lawnmower Man (1992) BDRip-AVC от DoMiNo | P | Режиссерская версия 1.37 GB ↑ 0 ↓ 0

Комментарии


Зарегистрируйтесь чтобы добавить комментарий
Торрент клиент
byTorrent - программа для загрузки торрент-файлов.

Скачать byTorrent.exe (1,5 МБ)

Скачать byTorrent.zip (0,6 МБ)

Поддержи torrent.by
российских рублей
(300 российских рублей это 4$)

Обратная связь rss

End game ©