↑↓torrent.by
Поиск
Логин:  Регистрация
Пароль:

Падение империи / Гражданская война / Civil War (2024) BDRip 720p от DoMiNo & селезень | D, P2 | Пифагор, HDrezka Studio, ViruseProject

download Скачать торрент-файл   magnet Магнитная ссылка Размер: 5.16 GB Добавлен: 2024-07-04 17:00
Пиры будут получены из сети DHT
Последний сидер был замечен 2024-07-08 14:47
Информация о фильме Название: Падение империи / Гражданская война Оригинальное название: Civil War Год выпуска: 2024 Жанр: боевик, драма Режиссер: Алекс Гарленд / Alex Garland В ролях: Кирстен Данст, Вагнер Моура, Кейли Спейни, Стивен Хендерсон, Соноя Мидзуно, Ник Офферман, Джефферсон Уайт, Хуани Фелиз, Нельсон Ли, Эдмунд Донован О фильме: Национальная гвардия Калифорнии и Техаса при поддержке боевой техники и авиации штурмуют столицу. Белый дом вот-вот падет. Группа журналистов пытается добраться до пылающего Вашингтона, чтобы взять последнее интервью у президента некогда Соединенных Штатов Америки. Но в стране, где царит хаос, нет ничего дороже литра бензина и ничего дешевле, чем человеческая жизнь. Выпущено: США, Великобритания / DNA Films, IPR.VC, A24 Продолжительность: 01:49:00 Перевод 1: Профессиональный (полное дублирование) | Пифагор Перевод 2: Дублированный (неофициальный) | HDRezka Studio Перевод 3: Профессиональный (двухголосый, закадровый) | ViruseProject 18 + Субтитры: Русские (Forced, 3x Full), английские Файл Формат: Matroska Качество: BDRip 720p | Исх.Civil War 2024 1080p Blu-ray Remux AVC TrueHD Atmos 7 1-CiNEPHiLES Видео: 1280x692 at 23.976 fps, x264@L4.1, ~4410 kbps Аудио 1: AC3, 6 ch, ~448 kbps - | Русский | | Пифагор Аудио 2: E-AC3, 6 ch, ~448 kbps - | Русский | | Пифагор Аудио 3: AC3, 2 ch, ~192 kbps - | Русский | | HDRezka Studio Аудио 4: AC3, 6 ch, ~640 kbps - | Русский | | ViruseProject Аудио 5: AC3, 6 ch, ~640 kbps - | Английский | | Original Формат субтитров: softsub (SRT) ***Рип от: -=DoMiNo=-
[+] M/Ix264 : frame I:1267 Avg QP:13.24 size:121128 x264 : frame P:34199 Avg QP:15.34 size: 47837 x264 : frame B:121343 Avg QP:17.55 size: 14964 General Unique ID : 122943939046596081827919445585438418775 (0x5C7E2430C38571B94C99AEB7EB07A757) Complete name : K:Civil.War.2024.BDRip.720p.x264.seleZen.mkv Format : Matroska Format version : Version 4 File size : 5.16 GiB Duration : 1 h 49 min Overall bit rate : 6 781 kb/s Frame rate : 23.976 FPS Movie name : Civil.War.2024.BDRip.720p.x264.seleZen Encoded date : 2024-07-04 08:48:46 UTC Writing application : mkvmerge v85.0 ('Shame For You') 64-bit Writing library : libebml v1.4.5 + libmatroska v1.7.1 Cover : Yes Attachments : cover.jpg / small_cover.jpg Video ID : 1 Format : AVC Format/Info : Advanced Video Codec Format profile : High@L4.1 Format settings : CABAC / 9 Ref Frames Format settings, CABAC : Yes Format settings, Reference : 9 frames Codec ID : V_MPEG4/ISO/AVC Duration : 1 h 49 min Bit rate : 4 410 kb/s Width : 1 280 pixels Height : 692 pixels Display aspect ratio : 1.85:1 Frame rate mode : Constant Frame rate : 23.976 (24000/1001) FPS Color space : YUV Chroma subsampling : 4:2:0 Bit depth : 8 bits Scan type : Progressive Bits/(Pixel*Frame) : 0.208 Stream size : 3.36 GiB (65%) Title : -=DoMiNo=- Writing library : x264 core 164 r3191 -DoMiNo Encoding settings : cabac=1 / ref=9 / deblock=1:-3:-2 / analyse=0x3:0x133 / me=umh / subme=10 / psy=1 / psy_rd=1.05:0.05 / mixed_ref=1 / me_range=32 / chroma_me=1 / trellis=2 / 8x8dct=1 / cqm=0 / deadzone=21,11 / fast_pskip=0 / chroma_qp_offset=-3 / threads=22 / lookahead_threads=5 / sliced_threads=0 / nr=0 / decimate=1 / interlaced=0 / bluray_compat=0 / constrained_intra=0 / bframes=12 / b_pyramid=2 / b_adapt=2 / b_bias=0 / direct=3 / weightb=1 / open_gop=0 / weightp=2 / keyint=240 / keyint_min=23 / scenecut=40 / intra_refresh=0 / rc_lookahead=60 / rc=crf / mbtree=0 / crf=16.8 / qcomp=0.60 / qpmin=0 / qpmax=69 / qpstep=4 / vbv_maxrate=50000 / vbv_bufsize=62500 / crf_max=0.0 / nal_hrd=none / filler=0 / ip_ratio=1.40 / pb_ratio=1.30 / aq=3:0.80 Language : English Default : Yes Forced : No Color range : Limited Color primaries : BT.709 Transfer characteristics : BT.709 Matrix coefficients : BT.709 Audio #1 ID : 2 Format : AC-3 Format/Info : Audio Coding 3 Commercial name : Dolby Digital Codec ID : A_AC3 Duration : 1 h 49 min Bit rate mode : Constant Bit rate : 448 kb/s Channel(s) : 6 channels Channel layout : L R C LFE Ls Rs Sampling rate : 48.0 kHz Frame rate : 31.250 FPS (1536 SPF) Compression mode : Lossy Stream size : 349 MiB (7%) Title : Dub - Пифагор Language : Russian Service kind : Complete Main Default : Yes Forced : No Dialog Normalization : -24 dB compr : -0.28 dB cmixlev : -3.0 dB surmixlev : -3 dB mixlevel : 285 dB roomtyp : 3 ltrtcmixlev : -3.0 dB ltrtsurmixlev : -3.0 dB lorocmixlev : -3.0 dB lorosurmixlev : -4.5 dB dialnorm_Average : -24 dB dialnorm_Minimum : -24 dB dialnorm_Maximum : -24 dB Audio #2 ID : 3 Format : E-AC-3 Format/Info : Enhanced AC-3 Commercial name : Dolby Digital Plus Codec ID : A_EAC3 Duration : 1 h 49 min Bit rate mode : Constant Bit rate : 448 kb/s Channel(s) : 6 channels Channel layout : L R C LFE Ls Rs Sampling rate : 48.0 kHz Frame rate : 31.250 FPS (1536 SPF) Compression mode : Lossy Stream size : 349 MiB (7%) Title : Dub - Пифагор Language : Russian Service kind : Complete Main Default : No Forced : No Dialog Normalization : -23 dB compr : -0.28 dB dmixmod : Lo/Ro ltrtcmixlev : -3.0 dB ltrtsurmixlev : -3.0 dB lorocmixlev : -3.0 dB lorosurmixlev : -3.0 dB dialnorm_Average : -23 dB dialnorm_Minimum : -23 dB dialnorm_Maximum : -23 dB Audio #3 ID : 4 Format : AC-3 Format/Info : Audio Coding 3 Commercial name : Dolby Digital Codec ID : A_AC3 Duration : 1 h 49 min Bit rate mode : Constant Bit rate : 192 kb/s Channel(s) : 2 channels Channel layout : L R Sampling rate : 48.0 kHz Frame rate : 31.250 FPS (1536 SPF) Compression mode : Lossy Stream size : 150 MiB (3%) Title : Dub - HDRezka Studio Language : Russian Service kind : Complete Main Default : No Forced : No Dialog Normalization : -25 dB compr : -0.28 dB ltrtcmixlev : -3.0 dB ltrtsurmixlev : -3.0 dB lorocmixlev : -3.0 dB lorosurmixlev : -3.0 dB dialnorm_Average : -25 dB dialnorm_Minimum : -25 dB dialnorm_Maximum : -25 dB Audio #4 ID : 5 Format : AC-3 Format/Info : Audio Coding 3 Commercial name : Dolby Digital Codec ID : A_AC3 Duration : 1 h 49 min Bit rate mode : Constant Bit rate : 640 kb/s Channel(s) : 6 channels Channel layout : L R C LFE Ls Rs Sampling rate : 48.0 kHz Frame rate : 31.250 FPS (1536 SPF) Compression mode : Lossy Stream size : 499 MiB (9%) Title : ViruseProject 18+ Language : Russian Service kind : Complete Main Default : No Forced : No Dialog Normalization : -22 dB compr : -0.28 dB cmixlev : -3.0 dB surmixlev : -3 dB dmixmod : Lo/Ro ltrtcmixlev : -3.0 dB ltrtsurmixlev : -3.0 dB lorocmixlev : -3.0 dB lorosurmixlev : -3.0 dB dialnorm_Average : -22 dB dialnorm_Minimum : -22 dB dialnorm_Maximum : -22 dB Audio #5 ID : 6 Format : AC-3 Format/Info : Audio Coding 3 Commercial name : Dolby Digital Codec ID : A_AC3 Duration : 1 h 49 min Bit rate mode : Constant Bit rate : 640 kb/s Channel(s) : 6 channels Channel layout : L R C LFE Ls Rs Sampling rate : 48.0 kHz Frame rate : 31.250 FPS (1536 SPF) Compression mode : Lossy Stream size : 499 MiB (9%) Language : English Service kind : Complete Main Default : No Forced : No Dialog Normalization : -31 dB cmixlev : -4.5 dB surmixlev : -6 dB dialnorm_Average : -31 dB dialnorm_Minimum : -31 dB dialnorm_Maximum : -31 dB Text #1 ID : 7 Format : UTF-8 Codec ID : S_TEXT/UTF8 Codec ID/Info : UTF-8 Plain Text Duration : 1 h 43 min Bit rate : 0 b/s Frame rate : 0.003 FPS Count of elements : 16 Stream size : 768 Bytes (0%) Title : Forced Language : Russian Default : No Forced : No Text #2 ID : 8 Format : UTF-8 Codec ID : S_TEXT/UTF8 Codec ID/Info : UTF-8 Plain Text Duration : 1 h 42 min Bit rate : 55 b/s Frame rate : 0.175 FPS Count of elements : 1077 Stream size : 41.5 KiB (0%) Title : Full Language : Russian Default : No Forced : No Text #3 ID : 9 Format : UTF-8 Codec ID : S_TEXT/UTF8 Codec ID/Info : UTF-8 Plain Text Duration : 1 h 43 min Bit rate : 58 b/s Frame rate : 0.161 FPS Count of elements : 999 Stream size : 44.1 KiB (0%) Title : Full - Cool Story Blog] Language : Russian Default : No Forced : No Text #4 ID : 10 Format : UTF-8 Codec ID : S_TEXT/UTF8 Codec ID/Info : UTF-8 Plain Text Duration : 1 h 42 min Bit rate : 61 b/s Frame rate : 0.177 FPS Count of elements : 1092 Stream size : 45.9 KiB (0%) Title : ViruseProject Language : Russian Default : No Forced : No Text #5 ID : 11 Format : UTF-8 Codec ID : S_TEXT/UTF8 Codec ID/Info : UTF-8 Plain Text Duration : 1 h 39 min Bit rate : 34 b/s Frame rate : 0.165 FPS Count of elements : 989 Stream size : 25.4 KiB (0%) Title : Full Language : English Default : No Forced : No Text #6 ID : 12 Format : UTF-8 Codec ID : S_TEXT/UTF8 Codec ID/Info : UTF-8 Plain Text Duration : 1 h 40 min Bit rate : 39 b/s Frame rate : 0.189 FPS Count of elements : 1139 Stream size : 28.6 KiB (0%) Title : SDH Language : English Default : No Forced : No Menu 00:00:00.000 : en:Chapter 01 00:07:17.228 : en:Chapter 02 00:13:45.783 : en:Chapter 03 00:18:26.647 : en:Chapter 04 00:25:19.142 : en:Chapter 05 00:28:56.151 : en:Chapter 06 00:34:20.892 : en:Chapter 07 00:40:07.863 : en:Chapter 08 00:45:29.059 : en:Chapter 09 00:51:35.884 : en:Chapter 10 00:57:02.752 : en:Chapter 11 01:04:00.336 : en:Chapter 12 01:14:16.076 : en:Chapter 13 01:21:02.566 : en:Chapter 14 01:33:09.125 : en:Chapter 15 01:41:24.161 : en:Chapter 16
Релиз: Присоединяйся к: Кликай на баннеры.

Всего файлов в раздаче: 1 
Civil.War.2024.BDRip.720p.x264.seleZen.mkv5.16 GB

Похожие раздачи по запросу - Падение
2024-07-13 magnet Падение империи / Гражданская война / Civil War (2024) BDRip 1080p от Generalfilm | D 6.57 GB ↑ 0 ↓ 1
2024-07-11 magnet Падение империи / Гражданская война / Civil War (2024) BDRip-HEVC 1080p от HEVC-CLUB | D 4.64 GB ↑ 0 ↓ 3
2024-07-10 magnet Падение империи / Гражданская война / Civil War (2024) BDRip-HEVC 1080p от RIPS CLUB | D, P2 6.39 GB ↑ 0 ↓ 1
2024-07-07 magnet Падение империи / Гражданская война / Civil War (2024) HDRip-AVC от ExKinoRay | D | Пифагор 744.00 MB ↑ 0 ↓ 0
2024-07-06 magnet Падение империи / Civil War (2024) UHD BDRemux 2160p | 4K | HDR10 | Dolby Vision | D | Пифагор 67.89 GB ↑ 0 ↓ 1
2024-07-06 magnet Падение империи / Гражданская война / Civil War (2024) BDRemux 1080p | D, P2 | Пифагор, HDrezka Studio, ViruseProject 25.75 GB ↑ 0 ↓ 0
2024-07-06 magnet Падение империи / Гражданская война / Civil War (2024) BDRip 1080p от ExKinoRay | D, P, P2 13.90 GB ↑ 0 ↓ 0

Комментарии


Зарегистрируйтесь чтобы добавить комментарий
Торрент клиент
byTorrent - программа для загрузки торрент-файлов.

Скачать byTorrent.exe (1,5 МБ)

Скачать byTorrent.zip (0,6 МБ)

Поддержи torrent.by
российских рублей
(300 российских рублей это 4$)

Обратная связь rss

End game ©