↑↓torrent.by
Поиск
Логин:  Регистрация
Пароль:

Падение империи / Гражданская война / Civil War (2024) BDRip от DoMiNo & селезень | D | Пифагор

download Скачать торрент-файл   magnet Магнитная ссылка Размер: 1.46 GB Добавлен: 2024-07-04 17:00
Пиры будут получены из сети DHT
Последний сидер был замечен вчера в 23:31
Информация о фильме Название: Падение империи / Гражданская война Оригинальное название: Civil War Год выпуска: 2024 Жанр: боевик, драма Режиссер: Алекс Гарленд / Alex Garland В ролях: Кирстен Данст, Вагнер Моура, Кейли Спейни, Стивен Хендерсон, Соноя Мидзуно, Ник Офферман, Джефферсон Уайт, Хуани Фелиз, Нельсон Ли, Эдмунд Донован О фильме: Национальная гвардия Калифорнии и Техаса при поддержке боевой техники и авиации штурмуют столицу. Белый дом вот-вот падет. Группа журналистов пытается добраться до пылающего Вашингтона, чтобы взять последнее интервью у президента некогда Соединенных Штатов Америки. Но в стране, где царит хаос, нет ничего дороже литра бензина и ничего дешевле, чем человеческая жизнь. Выпущено: США, Великобритания / DNA Films, IPR.VC, A24 Продолжительность: 01:49:00 Перевод: Профессиональный (полное дублирование) | Пифагор Субтитры: Русские (Forced - хардсаб) Файл Формат: AVI Качество: BDRip Исходник: Civil War 2024 1080p Blu-ray Remux AVC TrueHD Atmos 7 1-CiNEPHiLES Видео: 704x384 at 23.976 fps, XviD 69, ~1458 kbps Аудио: AC3, 6 ch, ~448 kbps - | Русский | Формат субтитров: хардсаб ***Рип от: -=DoMiNo=-
[+] M/IGeneral Complete name : U:Civil.War.2024.DUB.BDRip.seleZen.avi Format : AVI Format/Info : Audio Video Interleave Format settings : BitmapInfoHeader / WaveFormatEx File size : 1.46 GiB Duration : 1 h 48 min Overall bit rate : 1 915 kb/s Frame rate : 23.976 FPS Movie name : Civil.War.2024.DUB.BDRip.seleZen Writing application : VirtualDubModRus 1.5.10.2 (build 2542/release) Writing library : VirtualDubMod build 2542/release Copyright : -=DoMiNo=- Video ID : 0 Format : MPEG-4 Visual Format profile : Advanced Simple@L5 Format settings : BVOP1 / Custom Matrix Format settings, BVOP : 1 Format settings, QPel : No Format settings, GMC : No warppoints Format settings, Matrix : Custom Codec ID : XVID Codec ID/Hint : XviD Duration : 1 h 48 min Bit rate : 1 458 kb/s Width : 704 pixels Height : 384 pixels Display aspect ratio : 1.85:1 Frame rate : 23.976 (24000/1001) FPS Color space : YUV Chroma subsampling : 4:2:0 Bit depth : 8 bits Scan type : Progressive Compression mode : Lossy Bits/(Pixel*Frame) : 0.225 Stream size : 1.11 GiB (76%) Writing library : XviD 69 Audio ID : 1 Format : AC-3 Format/Info : Audio Coding 3 Commercial name : Dolby Digital Codec ID : 2000 Duration : 1 h 48 min Bit rate mode : Constant Bit rate : 448 kb/s Channel(s) : 6 channels Channel layout : L R C LFE Ls Rs Sampling rate : 48.0 kHz Frame rate : 31.250 FPS (1536 SPF) Compression mode : Lossy Stream size : 349 MiB (23%) Alignment : Split across interleaves Interleave, duration : 42 ms (1.00 video frame) Interleave, preload duratio : 500 ms Service kind : Complete Main Dialog Normalization : -24 dB compr : -0.28 dB cmixlev : -3.0 dB surmixlev : -3 dB mixlevel : 285 dB roomtyp : 3 ltrtcmixlev : -3.0 dB ltrtsurmixlev : -3.0 dB lorocmixlev : -3.0 dB lorosurmixlev : -4.5 dB dialnorm_Average : -24 dB dialnorm_Minimum : -24 dB dialnorm_Maximum : -24 dB
Релиз: Присоединяйся к: Кликай на баннеры.

Всего файлов в раздаче: 1 
Civil.War.2024.DUB.BDRip.seleZen.avi1.46 GB

Похожие раздачи по запросу - Падение
2024-07-13 magnet Падение империи / Гражданская война / Civil War (2024) BDRip 1080p от Generalfilm | D 6.57 GB ↑ 0 ↓ 6
2024-07-11 magnet Падение империи / Гражданская война / Civil War (2024) BDRip-HEVC 1080p от HEVC-CLUB | D 4.64 GB ↑ 0 ↓ 0
2024-07-10 magnet Падение империи / Гражданская война / Civil War (2024) BDRip-HEVC 1080p от RIPS CLUB | D, P2 6.39 GB ↑ 0 ↓ 2
2024-07-07 magnet Падение империи / Гражданская война / Civil War (2024) HDRip-AVC от ExKinoRay | D | Пифагор 744.00 MB ↑ 0 ↓ 0
2024-07-06 magnet Падение империи / Civil War (2024) UHD BDRemux 2160p | 4K | HDR10 | Dolby Vision | D | Пифагор 67.89 GB ↑ 0 ↓ 1
2024-07-06 magnet Падение империи / Гражданская война / Civil War (2024) BDRemux 1080p | D, P2 | Пифагор, HDrezka Studio, ViruseProject 25.75 GB ↑ 0 ↓ 3
2024-07-06 magnet Падение империи / Гражданская война / Civil War (2024) BDRip 1080p от ExKinoRay | D, P, P2 13.90 GB ↑ 0 ↓ 0

Комментарии


Зарегистрируйтесь чтобы добавить комментарий
Торрент клиент
byTorrent - программа для загрузки торрент-файлов.

Скачать byTorrent.exe (1,5 МБ)

Скачать byTorrent.zip (0,6 МБ)

Поддержи torrent.by
российских рублей
(300 российских рублей это 4$)

Обратная связь rss

End game ©