↑↓torrent.by
Поиск
Логин:  Регистрация
Пароль:

Денискины рассказы [S01] (2024) WEB-DL 1080p от ExKinoRay

download Скачать торрент-файл   magnet Магнитная ссылка Размер: 9.36 GB Добавлен: 2024-07-04 17:00
Пиры будут получены из сети DHT
Последний сидер был замечен 2024-07-11 23:18
Информация о фильме Название: Денискины рассказы Год выхода: 2024 Жанр: Комедия, приключения, семейный Режиссер: Артемий Драгунский В ролях: Максим Матузный, Александр Пашутин, Вероника Зверева, Дмитрий Калихов, Роман Панков, Варвара Бирюкова, Дмитрий Орлов, Янина Студилина, Кирилл Мелехов, Елизавета Моряк О фильме: Москва. К старожилу дома на Каретном Денису Викторовичу привозят его шестилетнего внука Дениса. Дед Денис каждый день рассказывает истории внуку о его ровеснике, жившем в совсем другую эпоху. Рассказы деда Дениса становятся порталом в его беззаботное советское детство в одном из московских дворов. Истории оживают, и внук Денис отправляется в путешествие в прошлое. Оказывается, что в любые времена у детей много общего — любознательность, непосредственность, необъятная любовь и интерес к тому, как устроен этот мир. Страна: Россия Студия: К.Б.А. / Кинокомпания братьев Андреасян Продолжительность: 12 x 00:21:00 Язык: Русский Файл Кодек: MPEG-4 AVC Качество: WEB-DL 1080p Видео: MPEG-4 AVC, ~ 5120 Кбит/с, 1920x1080, 25 кадр/с Звук: АAC, 2 ch, 256 Кбит/с Субтитры: Русские (valera76@ExKinoRay) Релиз от: Реклама, любого вида, отсутствует.
[+] MediaInfo General Complete name : Deniskiny.rasskazy.S01.2024.WEB-DL.1080p.ExKinoRayDeniskiny.rasskazy.S01.E04.2024.WEB-DL.1080p.ExKinoRay.mkv Format : Matroska Format version : Version 4 File size : 732 MiB Duration : 19 min 5 s Overall bit rate : 5 360 kb/s Frame rate : 25.000 FPS Encoded date : 2024-06-05 11:18:46 UTC Writing application : mkvmerge v56.1.0 ('My Friend') 64-bit Writing library : libebml v1.4.2 + libmatroska v1.6.4 Video ID : 1 Format : AVC Format/Info : Advanced Video Codec Format profile : High@L4 Format settings : CABAC / 4 Ref Frames Format settings, CABAC : Yes Format settings, Reference : 4 frames Codec ID : V_MPEG4/ISO/AVC Duration : 21 min 13 s Bit rate : 5 120 kb/s Width : 1 920 pixels Height : 1 080 pixels Display aspect ratio : 16:9 Frame rate mode : Constant Frame rate : 25.000 FPS Color space : YUV Chroma subsampling : 4:2:0 Bit depth : 8 bits Scan type : Progressive Bits/(Pixel*Frame) : 0.099 Stream size : 775 MiB (95%) Writing library : x264 core 152 r2854 e9a5903 Encoding settings : cabac=1 / ref=3 / deblock=1:0:0 / analyse=0x3:0x113 / me=hex / subme=7 / psy=1 / psy_rd=1.00:0.00 / mixed_ref=1 / me_range=16 / chroma_me=1 / trellis=1 / 8x8dct=1 / cqm=0 / deadzone=21,11 / fast_pskip=1 / chroma_qp_offset=-2 / threads=34 / lookahead_threads=5 / sliced_threads=0 / nr=0 / decimate=1 / interlaced=0 / bluray_compat=0 / constrained_intra=0 / bframes=6 / b_pyramid=2 / b_adapt=1 / b_bias=0 / direct=1 / weightb=1 / open_gop=0 / weightp=2 / keyint=50 / keyint_min=26 / scenecut=0 / intra_refresh=0 / rc_lookahead=40 / rc=2pass / mbtree=1 / bitrate=5120 / ratetol=1.0 / qcomp=0.60 / qpmin=0 / qpmax=69 / qpstep=4 / cplxblur=20.0 / qblur=0.5 / vbv_maxrate=7680 / vbv_bufsize=20480 / nal_hrd=none / filler=0 / ip_ratio=1.40 / aq=1:1.00 Language : Russian Default : Yes Forced : No Audio ID : 2 Format : AAC LC Format/Info : Advanced Audio Codec Low Complexity Codec ID : A_AAC-2 Duration : 21 min 13 s Bit rate : 256 kb/s Channel(s) : 2 channels Channel layout : L R Sampling rate : 48.0 kHz Frame rate : 46.875 FPS (1024 SPF) Compression mode : Lossy Stream size : 38.9 MiB (5%) Language : Russian Default : Yes Forced : No Text ID : 3 Format : UTF-8 Codec ID : S_TEXT/UTF8 Codec ID/Info : UTF-8 Plain Text Duration : 19 min 0 s Bit rate : 82 b/s Frame rate : 0.203 FPS Count of elements : 232 Stream size : 11.5 KiB (0%) Language : Russian Default : No Forced : No
[+] Скриншоты

Всего файлов в раздаче: 12 
Deniskiny.rasskazy.S01.E01.2024.WEB-DL.1080p.ExKinoRay.mkv814.63 MB
Deniskiny.rasskazy.S01.E02.2024.WEB-DL.1080p.ExKinoRay.mkv744.80 MB
Deniskiny.rasskazy.S01.E03.2024.WEB-DL.1080p.ExKinoRay.mkv786.65 MB
Deniskiny.rasskazy.S01.E04.2024.WEB-DL.1080p.ExKinoRay.mkv731.82 MB
Deniskiny.rasskazy.S01.E05.2024.WEB-DL.1080p.ExKinoRay.mkv756.57 MB
Deniskiny.rasskazy.S01.E06.2024.WEB-DL.1080p.ExKinoRay.mkv802.50 MB
Deniskiny.rasskazy.S01.E07.2024.WEB-DL.1080p.ExKinoRay.mkv842.18 MB
Deniskiny.rasskazy.S01.E08.2024.WEB-DL.1080p.ExKinoRay.mkv877.33 MB
Deniskiny.rasskazy.S01.E09.2024.WEB-DL.1080p.ExKinoRay.mkv702.33 MB
Deniskiny.rasskazy.S01.E10.2024.WEB-DL.1080p.ExKinoRay.mkv893.93 MB
Показать все файлы

Похожие раздачи по запросу - Денискины
2024-07-08 magnet Денискины рассказы [S01] (2024) WEB-DLRip-AVC от Generalfilm | КПК 1.10 GB ↑ 0 ↓ 0
2024-07-05 magnet Денискины рассказы [S01] (2024) WEB-DL 720p 4.81 GB ↑ 0 ↓ 0
2024-07-05 magnet Денискины рассказы [S01] (2024) WEB-DLRip-AVC от Files-x 3.08 GB ↑ 0 ↓ 0
2024-07-05 magnet Денискины рассказы [S01] (2024) WEB-DLRip от Files-x 3.12 GB ↑ 0 ↓ 0
2024-07-02 magnet Денискины рассказы [01х01-10 из 12] (2024) WEB-DLRip-AVC от Generalfilm | КПК 934.39 MB ↑ 0 ↓ 0
2024-06-29 magnet Денискины рассказы [01х01-10 из 12] (2024) WEB-DLRip-AVC от Files-x 2.56 GB ↑ 0 ↓ 0
2024-06-29 magnet Денискины рассказы [01x01-10 из 12] (2024) WEB-DL 1080p от ExKinoRay 7.77 GB ↑ 0 ↓ 0

Комментарии


Зарегистрируйтесь чтобы добавить комментарий
Торрент клиент
byTorrent - программа для загрузки торрент-файлов.

Скачать byTorrent.exe (1,5 МБ)

Скачать byTorrent.zip (0,6 МБ)

Поддержи torrent.by
российских рублей
(300 российских рублей это 4$)

Обратная связь rss

End game ©