↑↓torrent.by
Поиск
Логин:  Регистрация
Пароль:

Пираты: Больше, чем легенда / Pirates: Behind the Legends [01x01-03 из 08] (2024) WEB-DL 1080p | Pazl Voice

download Скачать торрент-файл   magnet Магнитная ссылка Размер: 5.95 GB Добавлен: 2024-07-04 17:00
Пиры будут получены из сети DHT
Последний сидер был замечен 2024-07-05 05:27
Название: Пираты: Больше, чем легенда Оригинальное название: Pirates: Behind the Legends Год выхода: 2024 Жанр: Документальный, биография, история Режиссер: Дэниэл Шарп В ролях: Билли Бойд, Рори Вилтон, Тим Картрайт, Генри Оствик Описание сериала: От легендарного Джона Уорда, увековеченного в художественной литературе как Джек Воробей, и английского исследователя Фрэнсиса Дрейка, которого враги называли пиратом, а товарищи - героем, до печально известных Пиратов Карибского моря, окутанных мифами. Страна: Великобритания Студия: Dash Pictures Продолжительность: ~00:45:00 Перевод: Профессиональный (двухголосый) Pazl Voice Субтитры: Русские (Full), английские (Full, SDH) Файл Формат: MKV Качество: WEB-DL (1080p) Видео: 1920x1080 (16:9), 25 fps, AVC (х264), High@L4, ~5869 Kbps avg, 0.113 bit/pixel Аудио RUS: 48 kHz, AC3, 3/2 (L, C, R, l, r) + LFE ch, ~384 kbps avg Аудио ENG: 48 kHz, E-AC3, 3/2 (L, C, R, l, r) + LFE ch, ~256 kbps avg
[+] Содержание01. Фрэнсис Дрейк – за королеву и страну / Francis Drake – For Queen and Country 02. Сказка о Грейс О'Мэлли / The Tale Of Grace O’Malley 03. Джон Уорд / John Ward
[+] MediaInfoОбщее Уникальный идентификатор : 312326396724437590351488110263040605412 (0xEAF7E040B61838EA3DA16A87439DFCE4) Полное имя : Pirates.Behind.the.Legends.2024.S01E01.WEB-DL.1080p.HULU.Pazl.Voice.mkv Формат : Matroska Версия формата : Version 4 Размер файла : 2,00 Гбайт Продолжительность : 44 мин. 0 с. Общий битрейт : 6 511 Кбит/сек Частота кадров : 25,000 кадров/сек Дата кодирования : 2024-06-18 15:07:13 UTC Программа кодирования : mkvmerge v68.0.0 ('The Curtain') 64-bit Библиотека кодирования : libebml v1.4.2 + libmatroska v1.6.4 Видео Идентификатор : 1 Формат : AVC Формат/Информация : Advanced Video Codec Профиль формата : High@L4 Настройки формата : CABAC / 4 Ref Frames Параметр CABAC формата : Да Параметр RefFrames формата : 4 кадра Идентификатор кодека : V_MPEG4/ISO/AVC Продолжительность : 44 мин. 0 с. Битрейт : 5 869 Кбит/сек Ширина : 1 920 пикселей Высота : 1 080 пикселей Соотношение сторон дисплея : 16:9 Режим частоты кадров : Постоянный Частота кадров : 25,000 кадров/сек Цветовое пространство : YUV Цветовая субдискретизация : 4:2:0 Битовая глубина : 8 бит Тип развёртки : Прогрессивная Бит/(Пиксели*Кадры) : 0.113 Размер потока : 1,80 Гбайт (90%) По умолчанию : Да Принудительно : Нет Аудио #1 Идентификатор : 2 Формат : AC-3 Формат/Информация : Audio Coding 3 Коммерческое название : Dolby Digital Идентификатор кодека : A_AC3 Продолжительность : 44 мин. 0 с. Вид битрейта : Постоянный Битрейт : 384 Кбит/сек Канал(-ы) : 6 каналов Расположение каналов : L R C LFE Ls Rs Частота дискретизации : 48,0 КГц Частота кадров : 31,250 кадров/сек (1536 SPF) Метод сжатия : С потерями Размер потока : 121 Мбайт (6%) Язык : Русский По умолчанию : Да Принудительно : Нет Нормализация звука речи : -31 dB cmixlev : -4.5 dB surmixlev : -6 dB dialnorm_Average : -31 dB dialnorm_Minimum : -31 dB dialnorm_Maximum : -31 dB Аудио #2 Идентификатор : 3 Формат : E-AC-3 Формат/Информация : Enhanced AC-3 Коммерческое название : Dolby Digital Plus Идентификатор кодека : A_EAC3 Продолжительность : 44 мин. 0 с. Вид битрейта : Постоянный Битрейт : 256 Кбит/сек Канал(-ы) : 6 каналов Расположение каналов : L R C LFE Ls Rs Частота дискретизации : 48,0 КГц Частота кадров : 31,250 кадров/сек (1536 SPF) Метод сжатия : С потерями Размер потока : 80,6 Мбайт (4%) Язык : Английский По умолчанию : Нет Принудительно : Нет Нормализация звука речи : -23 dB compr : -0.28 dB dmixmod : 3 ltrtcmixlev : -3.0 dB ltrtsurmixlev : -3.0 dB lorocmixlev : -3.0 dB lorosurmixlev : -3.0 dB dialnorm_Average : -23 dB dialnorm_Minimum : -23 dB dialnorm_Maximum : -23 dB Текст #1 Идентификатор : 4 Формат : UTF-8 Идентификатор кодека : S_TEXT/UTF8 Идентификатор кодека/Информация : UTF-8 Plain Text Продолжительность : 43 мин. 49 с. Битрейт : 178 бит/сек Частота кадров : 0,195 кадр/сек Число элементов : 513 Размер потока : 57,2 КиБ (0%) Язык : Русский По умолчанию : Нет Принудительно : Нет Текст #2 Идентификатор : 5 Формат : UTF-8 Идентификатор кодека : S_TEXT/UTF8 Идентификатор кодека/Информация : UTF-8 Plain Text Продолжительность : 43 мин. 49 с. Битрейт : 106 бит/сек Частота кадров : 0,306 кадр/сек Число элементов : 804 Размер потока : 34,3 КиБ (0%) Язык : Английский По умолчанию : Нет Принудительно : Нет Текст #3 Идентификатор : 6 Формат : UTF-8 Идентификатор кодека : S_TEXT/UTF8 Идентификатор кодека/Информация : UTF-8 Plain Text Продолжительность : 43 мин. 49 с. Битрейт : 112 бит/сек Частота кадров : 0,315 кадр/сек Число элементов : 829 Размер потока : 36,0 КиБ (0%) Заголовок : SDH Язык : Английский По умолчанию : Нет Принудительно : Нет
[+] Скриншоты

Всего файлов в раздаче: 3 
Pirates.Behind.the.Legends.2024.S01E01.WEB-DL.1080p.HULU.Pazl.Voice.mkv2.00 GB
Pirates.Behind.the.Legends.2024.S01E02.WEB-DL.1080p.HULU.Pazl.Voice.mkv1.96 GB
Pirates.Behind.the.Legends.2024.S01E03.WEB-DL.1080p.HULU.Pazl.Voice.mkv1.99 GB

Похожие раздачи по запросу - Пираты
Сегодня magnet Пираты: Больше, чем легенда / Pirates: Behind the Legends [01x01-06 из 08] (2024) WEB-DL 1080p | Pazl Voice 11.93 GB ↑ 0 ↓ 0
2024-07-18 magnet Пираты: Больше, чем легенда / Pirates: Behind the Legends [01x01-05 из 08] (2024) WEB-DL 1080p | Pazl Voice 9.92 GB ↑ 0 ↓ 0
2024-06-25 magnet Пираты: Больше, чем легенда / Pirates: Behind the Legends [01x01-02 из 08] (2024) WEB-DL 1080p | Pazl Voice 3.96 GB ↑ 0 ↓ 0
2024-06-19 magnet Пираты: Больше, чем легенда / Pirates: Behind the Legends [01x01 из 08] (2024) WEB-DL 1080p | Pazl Voice 2.00 GB ↑ 0 ↓ 0

Комментарии


Зарегистрируйтесь чтобы добавить комментарий
Торрент клиент
byTorrent - программа для загрузки торрент-файлов.

Скачать byTorrent.exe (1,5 МБ)

Скачать byTorrent.zip (0,6 МБ)

Поддержи torrent.by
российских рублей
(300 российских рублей это 4$)

Обратная связь rss

End game ©