↑↓torrent.by
Поиск
Логин:  Регистрация
Пароль:

Мальчик и птица / Kimitachi Wa Dou Ikiru Ka / The Boy And The Heron (2024) UHD WEB-DL HEVC 2160p | 4K | HDR | Dolby Vision Profile 8 | D

download Скачать торрент-файл   magnet Магнитная ссылка Размер: 22.60 GB Раздают: 1 Качают: 0 Добавлен: 2024-07-04 17:00
Пиры будут получены из сети DHT
Последний сидер был замечен сегодня в 13:09
Название: Мальчик и птица Оригинальное название: Kimitachi Wa Dou Ikiru Ka / The Boy And The Heron Год выхода: 2024 Производство: Япония / Studio Ghibli, Toho Жанр: Приключения, драма, фэнтези Перевод: Дублированный профессиональный Продолжительность: 02:03:49 Режиссёр: Хаяо Миядзаки В ролях: Сома Сантоки, Масаки Суда, Аимён, Ёсино Кимура, Ко Сибасаки, Сёхэи Хино, Такуя Кимура, Дзюн Кунимура, Каору Кобаяси, Дзюн Фубуки Описание: Через три года после начала Тихоокеанской войны ,мама мальчика Махито погибла при пожаре в Токио, а ещё через год отец женился на её сестре и отправил сына в фамильное поместье в сельской местности. Глава семьи работает на оборонном заводе и редко бывает дома, поэтому мальчику приходится проводить дни с беременной мачехой и в окружении пожилой прислуги, и, кроме того, с самого первого дня его донимает подозрительная серая цапля. Однажды птица говорит Махито, что может отвести его к матери и заманивает в загадочную башню, которую окружает множество местных легенд. Формат: MKV Качество: WEB-DL 2160p Видео: MPEGH HEVC / ~24.4 Mbps / 3832x2068 / 0.129 Бит/(Пиксели*Кадры) / 23.976 fps Аудио 01: E-AC3, 6 ch, 448 kbps | Русский, DUB | CPI Films | Аудио 02: E-AC3, 6 ch, 448 kbps | Русский, DUB | Студийная банда | Аудио 03: E-AC3 JOC, 6 ch, 768 kbps | Японский | Субтитры: Русские (Forced, Full)
[+] MediainfoGeneral Unique ID : 222747342448449754905870446072689103432 (0xA79393E330FBB10C32106858B3889248) Complete name : E:/Kimitachi wa Dou Ikiru ka 2160p/Kimitachi wa Dou Ikiru ka 2160p.mkv Format : Matroska Format version : Version 4 File size : 22.6 GiB Duration : 2 h 3 min Overall bit rate : 26.1 Mb/s Frame rate : 23.976 FPS Encoded date : 2024-07-03 23:00:22 UTC Writing application : mkvmerge v82.0 ('I'm The President') 64-bit Writing library : libebml v1.4.5 + libmatroska v1.7.1 Video ID : 1 Format : HEVC Format/Info : High Efficiency Video Coding Format profile : Main 10@L5@High HDR format : Dolby Vision, Version 1.0, Profile 8.1, dvhe.08.06, BL+RPU, HDR10 compatible / SMPTE ST 2094 App 4, Version HDR10+ Profile B, HDR10+ Profile B compatible Codec ID : V_MPEGH/ISO/HEVC Duration : 2 h 3 min Bit rate : 24.4 Mb/s Width : 3 832 pixels Height : 2 068 pixels Display aspect ratio : 1.85:1 Frame rate mode : Constant Frame rate : 23.976 (24000/1001) FPS Color space : YUV Chroma subsampling : 4:2:0 (Type 2) Bit depth : 10 bits Bits/(Pixel*Frame) : 0.129 Stream size : 21.2 GiB (94%) Language : Japanese Default : Yes Forced : No Color range : Limited Color primaries : BT.2020 Transfer characteristics : PQ Matrix coefficients : BT.2020 non-constant Mastering display color primaries : BT.2020 Mastering display luminance : min: 0.0050 cd/m2, max: 1000 cd/m2 Maximum Content Light Level : 1201 cd/m2 Maximum Frame-Average Light Level : 315 cd/m2 Audio #1 ID : 2 Format : E-AC-3 Format/Info : Enhanced AC-3 Commercial name : Dolby Digital Plus Codec ID : A_EAC3 Duration : 2 h 3 min Bit rate mode : Constant Bit rate : 448 kb/s Channel(s) : 6 channels Channel layout : L R C LFE Ls Rs Sampling rate : 48.0 kHz Frame rate : 31.250 FPS (1536 SPF) Compression mode : Lossy Stream size : 397 MiB (2%) Title : CPI Language : Russian Service kind : Complete Main Default : Yes Forced : No Audio #2 ID : 3 Format : E-AC-3 Format/Info : Enhanced AC-3 Commercial name : Dolby Digital Plus Codec ID : A_EAC3 Duration : 2 h 3 min Bit rate mode : Constant Bit rate : 448 kb/s Channel(s) : 6 channels Channel layout : L R C LFE Ls Rs Sampling rate : 48.0 kHz Frame rate : 31.250 FPS (1536 SPF) Compression mode : Lossy Stream size : 397 MiB (2%) Title : STB Language : Russian Service kind : Complete Main Default : Yes Forced : No Audio #3 ID : 4 Format : E-AC-3 JOC Format/Info : Enhanced AC-3 with Joint Object Coding Commercial name : Dolby Digital Plus with Dolby Atmos Codec ID : A_EAC3 Duration : 2 h 3 min Bit rate mode : Constant Bit rate : 768 kb/s Channel(s) : 6 channels Channel layout : L R C LFE Ls Rs Sampling rate : 48.0 kHz Frame rate : 31.250 FPS (1536 SPF) Compression mode : Lossy Stream size : 681 MiB (3%) Language : Japanese Service kind : Complete Main Default : No Forced : No Complexity index : 16 Number of dynamic objects : 15 Bed channel count : 1 channel Bed channel configuration : LFE Text #1 ID : 5 Format : UTF-8 Codec ID : S_TEXT/UTF8 Codec ID/Info : UTF-8 Plain Text Duration : 2 h 0 min Bit rate : 3 b/s Frame rate : 0.006 FPS Count of elements : 40 Stream size : 2.84 KiB (0%) Title : Forsed Language : Russian Default : Yes Forced : No Text #2 ID : 6 Format : UTF-8 Codec ID : S_TEXT/UTF8 Codec ID/Info : UTF-8 Plain Text Duration : 2 h 2 min Bit rate : 48 b/s Frame rate : 0.122 FPS Count of elements : 897 Stream size : 43.3 KiB (0%) Title : Full Language : Russian Default : No Forced : No
[+] Скриншоты

Всего файлов в раздаче: 1 
Kimitachi wa Dou Ikiru ka 2160p.mkv22.60 GB

Похожие раздачи по запросу - Мальчик
2024-07-13 magnet Мальчик и птица / Kimitachi Wa Dou Ikiru Ka / The Boy And The Heron (2023) BDRip 1080p от Generalfilm | D 6.62 GB ↑ 0 ↓ 1
2024-07-11 magnet Мальчик и птица / Kimitachi Wa Dou Ikiru Ka / The Boy And The Heron (2023) BDRemux 1080p | D, A 27.85 GB ↑ 0 ↓ 0
2024-07-09 magnet Мальчик и птица / Kimitachi Wa Dou Ikiru Ka / The Boy And The Heron (2023) BDRip 1080p | D 10.00 GB ↑ 0 ↓ 0
2024-07-08 magnet Мальчик и птица / Kimitachi Wa Dou Ikiru Ka / The Boy And The Heron (2023) UHD BDRemux 2160p | 4K | HDR | Dolby Vision Profile 7 | D 79.81 GB ↑ 0 ↓ 0
2024-07-08 magnet Мальчик и птица / Kimitachi Wa Dou Ikiru Ka / The Boy And The Heron (2023) BDRip-AVC от ExKinoRay | D 1.08 GB ↑ 0 ↓ 1
2024-07-08 magnet Мальчик и птица / Kimitachi Wa Dou Ikiru Ka / The Boy And The Heron (2023) BDRemux 1080p | D 27.18 GB ↑ 0 ↓ 0
2024-07-07 magnet Мальчик и птица / Kimitachi Wa Dou Ikiru Ka / The Boy And The Heron (2023) BDRemux 1080p | D 27.18 GB ↑ 0 ↓ 1

Комментарии


Зарегистрируйтесь чтобы добавить комментарий
Торрент клиент
byTorrent - программа для загрузки торрент-файлов.

Скачать byTorrent.exe (1,5 МБ)

Скачать byTorrent.zip (0,6 МБ)

Поддержи torrent.by
российских рублей
(300 российских рублей это 4$)

Обратная связь rss

End game ©