↑↓torrent.by
Поиск
Логин:  Регистрация
Пароль:

Криминальный город. Возмездие / Beomjoe dosi 4 / The Roundup: Punishment (2024) WEB-DLRip-AVC | L | RGB

download Скачать торрент-файл   magnet Магнитная ссылка Размер: 1.46 GB Раздают: 19 Качают: 0 Добавлен: il68k 2024-07-04 19:25
Пиры будут получены из сети DHT
Последний сидер был замечен сегодня в 14:19
Информация о фильме Название: Криминальный город. Возмездие Оригинальное название: Beomjoe dosi 4 / The Roundup: Punishment Год выхода: 2024 Жанр: криминал, боевик, детектив Режиссер: Хо Мён-хэн В ролях: Ма Дон-сок, Ким Му-ёль, Ли Дон-хви, Пак Чи-хван, Ли Бом-су, Ким Мин-джэ, Ли Джу-бин, Хён Бон-щик, Ли Джи-хун О фильме: Детектив Ма Сок-то создал отдел по борьбе с киберпреступлениями и пытается поймать организаторов крупнейшего в стране нелегального онлайн-казино. Страна: Южная Корея Студия: ABO Entertainment, B.A. Entertainment, Big Punch Pictures, Hong Film Продолжительность: 01:49:12 Перевод: Любительский (многоголосый закадровый) | RGB | 18+ Внимание! Ненормативная лексика! Файл Формат: MKV Качество: WEB-DLRip-AVC Видео: AVC/H.264, 720x302, ~1723 Kbps, 24.000 fps Аудио: AC3, 48 kHz, 2 ch, 192 Kbps - русский Субтитры: отсутствуют Семпл
[+] Скриншоты
[+] MediaInfo General Unique ID: 246961852085518134373691070981133756874 (0xB9CB1F630F511B0693E8FD4E9382E9CA) Complete name: E:\RGB\The.Roundup.Punishment.2024.WEB.MVO-RGB.mkv Format: Matroska Format version: Version 4 File size: 1.46 GiB Duration: 1 h 49 min Overall bit rate: 1 917 kb/s Frame rate: 24.000 FPS Movie name: RGB Encoded date: 2024-07-04 11:28:39 UTC Writing application: mkvmerge v82.0 ('I'm The President') 64-bit Writing library: libebml v1.4.5 + libmatroska v1.7.1 Video ID: 1 Format: AVC Format/Info: Advanced Video Codec Format profile: High@L4.1 Format settings: CABAC / 10 Ref Frames Format settings, CABAC: Yes Format settings, Reference: 10 frames Codec ID: V_MPEG4/ISO/AVC Duration: 1 h 49 min Bit rate: 1 723 kb/s Width: 720 pixels Height: 302 pixels Display aspect ratio: 2.39:1 Frame rate mode: Constant Frame rate: 24.000 FPS Color space: YUV Chroma subsampling: 4:2:0 Bit depth: 8 bits Scan type: Progressive Bits/(Pixel*Frame): 0.330 Stream size: 1.31 GiB (90%) Title: RGB Language: English Default: Yes Forced: No Audio ID: 2 Format: AC-3 Format/Info: Audio Coding 3 Commercial name: Dolby Digital Codec ID: A_AC3 Duration: 1 h 49 min Bit rate mode: Constant Bit rate: 192 kb/s Channel(s): 2 channels Channel layout: L R Sampling rate: 48.0 kHz Frame rate: 31.250 FPS (1536 SPF) Compression mode: Lossy Stream size: 150 MiB (10%) Title: MVO Language: Russian Service kind: Complete Main Default: Yes Forced: No Dialog Normalization: -31 dB compr: 4.22 dB mixlevel: 285 dB roomtyp: 3 ltrtcmixlev: -3.0 dB ltrtsurmixlev: -3.0 dB lorocmixlev: -3.0 dB lorosurmixlev: -3.0 dB dialnorm_Average: -31 dB dialnorm_Minimum: -31 dB dialnorm_Maximum: -31 dB
Релиз от: RGB

Всего файлов в раздаче: 1 
The.Roundup.Punishment.2024.WEB.MVO-RGB.mkv1.46 GB

Похожие раздачи по запросу - Криминальный город
Сегодня magnet Ночь и город / Night and the City (1950) BDRip 720p от msltel | P2 6.28 GB ↑ 0 ↓ 0
Сегодня magnet Мой шпион: Вечный город / My Spy: The Eternal City (2024) WEB-DL 1080p от JNS82 | L | LE-Production 5.84 GB ↑ 1 ↓ 6
Сегодня magnet Мой шпион: Вечный город / My Spy: The Eternal City (2024) WEB-DLRip-AVC от ExKinoRay | P2 | ViruseProject 745.01 MB ↑ 2 ↓ 6
2024-07-20 magnet Мой шпион: Вечный город / My Spy: The Eternal City (2024) WEB-DLRip 720p от DoMiNo & селезень | P2 | ViruseProject 2.20 GB ↑ 0 ↓ 1
2024-07-20 magnet Мой шпион: Вечный город / My Spy: The Eternal City (2024) WEB-DLRip от New-Team | P2 | ViruseProject 1.46 GB ↑ 0 ↓ 1
2024-07-20 magnet Мой шпион: Вечный город / My Spy: The Eternal City (2024) WEB-DL 1080p | ViruseProject 5.99 GB ↑ 1 ↓ 18
2024-07-19 magnet Затерянный город / The Lost City (2022) HDRip-AVC от ExKinoRay | D 746.48 MB ↑ 0 ↓ 0

Комментарии


Зарегистрируйтесь чтобы добавить комментарий
Торрент клиент
byTorrent - программа для загрузки торрент-файлов.

Скачать byTorrent.exe (1,5 МБ)

Скачать byTorrent.zip (0,6 МБ)

Поддержи torrent.by
российских рублей
(300 российских рублей это 4$)

Обратная связь rss

End game ©