↑↓torrent.by
Поиск
Логин:  Регистрация
Пароль:

Криминальный город / The Outlaws / Beomjoi dosi (2017) HDRip-AVC от DoMiNo & селезень | D

download Скачать торрент-файл   magnet Магнитная ссылка Размер: 2.55 GB Добавлен: 2024-07-05 05:00
Пиры будут получены из сети DHT
Последний сидер был замечен 2024-07-05 05:00
Информация о фильме Название: Криминальный город Оригинальное название: The Outlaws / Beomjoi dosi Год выхода: 2017 Жанр: криминал, боевик, триллер Режиссер: Кан Юн-сон В ролях: Дон Сок Ма, Кё Сан Юн, Чжэ Юн Чо, Гви Хва Чхве, Чжи Хван Пак, Ки Чжун Хон, Ха Чжун Сон, Дон Вон Хо, Сон Гю Чжин, Сон Гю Ким (I), Хён Чжун Им, Сон Тэ Хо, Ин Ги Чон, Чжин Ун Чо, Чжи Сон Ом О фильме: В 2004 году в китайском квартале Сеула, печально известном высоким уровнем преступности, объявляются три особо борзых мигранта-коллектора и вместо того, чтобы по старинке изымать деньги у должников, сразу убивают главу одной из преступных группировок. Свято место пусто не бывает, и вот уже предводитель троицы Цзян Чэнь руководит этой бандой и пытается отжать бизнес у конкурентов. Местный начальник следственно-оперативной группы Ма Сок-то привык поддерживать худой мир на подконтрольной территории, но Цзян Чэнь мирно жить не хочет. Выпущено: Южная Корея / BA Entertainment, Hong Film Продолжительность: 02:01:07 Перевод: Дублированный | Lucky Production Субтитры: Русские, английские Файл Формат: Matroska Качество: HDRip-AVC Видео: 1152x482 at 23.976 fps, x264@L4.1, ~2531 kbps Аудио: AC3, 6 ch, ~384 kbps - | Русский | Формат субтитров: softsub (SRT) ***Рип от: -=DoMiNo=-
[+] M/Ix264 : frame I:1530 Avg QP:16.01 size: 68324 x264 : frame P:35594 Avg QP:17.42 size: 26577 x264 : frame B:137128 Avg QP:18.55 size: 9771 General Unique ID : 257966078198755228313165721394864056805 (0xC212759F6D4C967B1FFD2CB5BB51E9E5) Complete name : L:Beomjoi.dosi.2017.HDRip.x264.seleZen.mkv Format : Matroska Format version : Version 4 File size : 2.55 GiB Duration : 2 h 1 min Overall bit rate : 3 017 kb/s Movie name : Beomjoi.dosi.2017.HDRip.x264.seleZen Encoded date : UTC 2022-07-07 13:16:16 Writing application : mkvmerge v63.0.0 ('Everything') 64-bit Writing library : libebml v1.4.2 + libmatroska v1.6.4 Cover : Yes Attachments : cover.jpg / small_cover.jpg Video ID : 1 Format : AVC Format/Info : Advanced Video Codec Format profile : High@L4.1 Format settings : CABAC / 12 Ref Frames Format settings, CABAC : Yes Format settings, Reference : 12 frames Codec ID : V_MPEG4/ISO/AVC Duration : 2 h 1 min Bit rate : 2 631 kb/s Width : 1 152 pixels Height : 482 pixels Display aspect ratio : 2.40:1 Frame rate mode : Constant Frame rate : 23.976 (24000/1001) FPS Color space : YUV Chroma subsampling : 4:2:0 Bit depth : 8 bits Scan type : Progressive Bits/(Pixel*Frame) : 0.198 Stream size : 2.23 GiB (87%) Title : -=DoMiNo=- Writing library : x264 core 164 by -=DoMiNo=- Encoding settings : cabac=1 / ref=12 / deblock=1:-2:-2 / analyse=0x3:0x133 / me=umh / subme=11 / psy=1 / psy_rd=1.05:0.05 / mixed_ref=1 / me_range=32 / chroma_me=1 / trellis=2 / 8x8dct=1 / cqm=0 / deadzone=21,11 / fast_pskip=0 / chroma_qp_offset=-3 / threads=17 / lookahead_threads=3 / sliced_threads=0 / nr=0 / decimate=1 / interlaced=0 / bluray_compat=0 / constrained_intra=0 / bframes=10 / b_pyramid=2 / b_adapt=2 / b_bias=0 / direct=1 / weightb=1 / open_gop=0 / weightp=2 / keyint=250 / keyint_min=23 / scenecut=40 / intra_refresh=0 / rc_lookahead=60 / rc=crf / mbtree=0 / crf=18.5 / qcomp=0.65 / qpmin=0 / qpmax=69 / qpstep=4 / vbv_maxrate=50000 / vbv_bufsize=62500 / crf_max=0.0 / nal_hrd=none / filler=0 / ip_ratio=1.35 / pb_ratio=1.25 / aq=3:0.80 Language : Korean Default : Yes Forced : No Color range : Limited Color primaries : BT.709 Transfer characteristics : BT.709 Matrix coefficients : BT.709 Audio ID : 2 Format : AC-3 Format/Info : Audio Coding 3 Commercial name : Dolby Digital Codec ID : A_AC3 Duration : 2 h 1 min Bit rate mode : Constant Bit rate : 384 kb/s Channel(s) : 6 channels Channel layout : L R C LFE Ls Rs Sampling rate : 48.0 kHz Frame rate : 31.250 FPS (1536 SPF) Compression mode : Lossy Stream size : 333 MiB (13%) Title : DUB Language : Russian Service kind : Complete Main Default : Yes Forced : Yes Text #1 ID : 3 Format : UTF-8 Codec ID : S_TEXT/UTF8 Codec ID/Info : UTF-8 Plain Text Duration : 1 h 56 min Bit rate : 69 b/s Count of elements : 1667 Stream size : 59.4 KiB (0%) Title : Full Language : Russian Default : No Forced : No Text #2 ID : 4 Format : UTF-8 Codec ID : S_TEXT/UTF8 Codec ID/Info : UTF-8 Plain Text Duration : 1 h 56 min Bit rate : 53 b/s Count of elements : 1689 Stream size : 45.3 KiB (0%) Language : English Default : No Forced : No Menu 00:00:00.000 : en:Chapter 1 00:10:35.635 : en:Chapter 2 00:20:01.992 : en:Chapter 3 00:27:16.051 : en:Chapter 4 00:34:13.968 : en:Chapter 5 00:43:32.109 : en:Chapter 6 00:54:11.164 : en:Chapter 7 01:03:30.848 : en:Chapter 8 01:12:20.210 : en:Chapter 9 01:19:29.389 : en:Chapter 10 01:25:37.882 : en:Chapter 11 01:32:26.290 : en:Chapter 12 01:39:07.232 : en:Chapter 13 01:46:26.671 : en:Chapter 14 01:55:29.589 : en:Chapter 15
Релиз: Присоединяйся к: Кликай на баннеры.

Всего файлов в раздаче: 1 
Beomjoi.dosi.2017.HDRip.x264.seleZen.mkv2.55 GB

Похожие раздачи по запросу - Криминальный
2024-07-06 magnet Криминальный город. Возмездие / Beomjoe dosi 4 / The Roundup: Punishment (2024) WEB-DLRip-AVC | L | RGB 1.66 GB ↑ 6 ↓ 2
2024-07-05 magnet Криминальный город. Возмездие / Beomjoe dosi 4 / The Roundup: Punishment (2024) WEB-DLRip 720p от DoMiNo | L | RGB 2.03 GB ↑ 0 ↓ 0
2024-07-05 magnet Криминальный город. Возмездие / Beomjoe dosi 4 / The Roundup: Punishment (2024) WEB-DLRip от JNS82 | L | RGB 1.46 GB ↑ 0 ↓ 0
2024-07-04 magnet Криминальный город. Возмездие / Beomjoe dosi 4 / The Roundup: Punishment (2024) WEB-DLRip-AVC | L | RGB 1.46 GB ↑ 11 ↓ 0
2024-07-04 magnet Криминальный город. Возмездие / Beomjoe dosi 4 / The Roundup: Punishment (2024) WEB-DL 1080p | L | RGB 6.11 GB ↑ 83 ↓ 2
2024-07-04 magnet Дмитрий Найденов - Ушедшие 5, Криминальный клан (2024) МР3 412.33 MB ↑ 0 ↓ 0

Комментарии


Зарегистрируйтесь чтобы добавить комментарий
Торрент клиент
byTorrent - программа для загрузки торрент-файлов.

Скачать byTorrent.exe (1,5 МБ)

Скачать byTorrent.zip (0,6 МБ)

Поддержи torrent.by
российских рублей
(300 российских рублей это 4$)

Обратная связь rss

End game ©