↑↓torrent.by
Поиск
Логин:  Регистрация
Пароль:

Новокаин / Novocaine (2001) WEB-DL 1080p | P, A

download Скачать торрент-файл   magnet Магнитная ссылка Размер: 9.56 GB Добавлен: 2024-07-05 05:00
Пиры будут получены из сети DHT
Последний сидер был замечен 2024-07-05 15:00
Информация о фильме Название: Новокаин Оригинальное название: Novocaine Год выхода: 2001 Жанр: Триллер, драма, комедия, криминал Режиссер: Дэвид Аткинс В ролях: Стив Мартин, Хелена Бонем Картер, Лора Дерн, Элиас Котеас, Скотт Каан, Кит Дэвид, Линн Тигпен, Кевин Бейкон, Челси Росс, Полли Нунан О фильме: Дантист Фрэнк Сангстер - воплощение американской мечты. Но его процветающий бизнес и радужные планы с красавицей - ассистенткой разбиваются в прах, когда в кресло к Фрэнку усаживается Сюзан Айви... Сначала у них исчезают наркотики. А вскоре его самого уже разыскивает полиция за убийство. Страна: США Студия: Artisan Entertainment, Numb Gums Productions Inc Продолжительность: 01:34:32 Перевод 1: Профессиональный (многоголосый, закадровый) | West Video Перевод 2: Авторский (одноголосый, закадровый) | Антон Карповский Файл Формат: MKV Качество: WEB-DL 1080p Видео: MPEG-4 AVC, 1920x1040 (1.85:1), 24.000 fps, 13.3 Mbps Аудио 1: Russian: АС3, 5.1 ch, 48.0 kHz, 16 bits, 384 kbps | MVO, West Video Аудио 2: Russian: АС3, 2.0 ch, 48.0 kHz, 16 bits, 192 kbps | AVO, Карповский Аудио 3: English: E-AC3, 6 ch, 48.0 kHz, 16 bits, 640 kbps | Original Субтитры: Русские (Full), английские
[+] Скриншоты
[+] Инфо-файлGeneral Unique ID : 82581838471753431338313015556834164450 (0x3E20AEFDA05430AE9948EBF74CAD7EE2) Complete name : Novocaine.2001.1080p.WEB-DL.mkv Format : Matroska Format version : Version 4 File size : 9.56 GiB Duration : 1 h 34 min Overall bit rate : 14.5 Mb/s Frame rate : 24.000 FPS Encoded date : 2024-07-04 04:42:11 UTC Writing application : mkvmerge v38.0.0 ('The Silent Type') 64-bit Writing library : libebml v1.3.9 + libmatroska v1.5.2 Video ID : 1 Format : AVC Format/Info : Advanced Video Codec Format profile : High@L4 Format settings : CABAC / 4 Ref Frames Format settings, CABAC : Yes Format settings, Reference frames : 4 frames Codec ID : V_MPEG4/ISO/AVC Duration : 1 h 34 min Bit rate : 13.3 Mb/s Width : 1 920 pixels Height : 1 040 pixels Display aspect ratio : 1.85:1 Frame rate mode : Constant Frame rate : 24.000 FPS Color space : YUV Chroma subsampling : 4:2:0 Bit depth : 8 bits Scan type : Progressive Bits/(Pixel*Frame) : 0.277 Stream size : 8.76 GiB (92%) Language : English Default : Yes Forced : No Color range : Limited Color primaries : BT.709 Transfer characteristics : BT.709 Matrix coefficients : BT.709 Audio #1 ID : 2 Format : AC-3 Format/Info : Audio Coding 3 Commercial name : Dolby Digital Codec ID : A_AC3 Duration : 1 h 34 min Bit rate mode : Constant Bit rate : 384 kb/s Channel(s) : 6 channels Channel layout : L R C LFE Ls Rs Sampling rate : 48.0 kHz Frame rate : 31.250 FPS (1536 SPF) Compression mode : Lossy Stream size : 260 MiB (3%) Title : MVO Language : Russian Service kind : Complete Main Default : Yes Forced : No Audio #2 ID : 3 Format : AC-3 Format/Info : Audio Coding 3 Commercial name : Dolby Digital Codec ID : A_AC3 Duration : 1 h 34 min Bit rate mode : Constant Bit rate : 192 kb/s Channel(s) : 2 channels Channel layout : L R Sampling rate : 48.0 kHz Frame rate : 31.250 FPS (1536 SPF) Compression mode : Lossy Stream size : 130 MiB (1%) Title : AVO Language : Russian Service kind : Complete Main Default : No Forced : No Audio #3 ID : 4 Format : E-AC-3 Format/Info : Enhanced AC-3 Commercial name : Dolby Digital Plus Codec ID : A_EAC3 Duration : 1 h 34 min Bit rate mode : Constant Bit rate : 640 kb/s Channel(s) : 6 channels Channel layout : L R C LFE Ls Rs Sampling rate : 48.0 kHz Frame rate : 31.250 FPS (1536 SPF) Compression mode : Lossy Stream size : 433 MiB (4%) Title : English Language : English Service kind : Complete Main Default : No Forced : No Text #1 ID : 5 Format : UTF-8 Codec ID : S_TEXT/UTF8 Codec ID/Info : UTF-8 Plain Text Duration : 1 h 30 min Bit rate : 119 b/s Frame rate : 0.225 FPS Count of elements : 1216 Stream size : 78.8 KiB (0%) Language : Russian Default : No Forced : No Text #2 ID : 6 Format : UTF-8 Codec ID : S_TEXT/UTF8 Codec ID/Info : UTF-8 Plain Text Duration : 1 h 33 min Bit rate : 80 b/s Frame rate : 0.239 FPS Count of elements : 1335 Stream size : 54.9 KiB (0%) Title : English Language : English Default : No Forced : No

Всего файлов в раздаче: 1 
Novocaine.2001.1080p.WEB-DL.mkv9.56 GB

Комментарии


Зарегистрируйтесь чтобы добавить комментарий
Торрент клиент
byTorrent - программа для загрузки торрент-файлов.

Скачать byTorrent.exe (1,5 МБ)

Скачать byTorrent.zip (0,6 МБ)

Поддержи torrent.by
российских рублей
(300 российских рублей это 4$)

Обратная связь rss

End game ©