↑↓torrent.by
Поиск
Логин:  Регистрация
Пароль:

Женщина / Фэм / Femme (2023) WEB-DL 1080p | Sub

download Скачать торрент-файл   magnet Магнитная ссылка Размер: 4.01 GB Добавлен: 2024-07-05 05:00
Пиры будут получены из сети DHT
Последний сидер был замечен 2024-07-05 20:02
Информация о фильме Название: Женщина / Фэм Оригинальное название: Femme Год выхода: 2023 Жанр: лгбт, триллер Режиссер: Сэм Эйч Фриман, Нг Чун Пин В ролях: Нэйтан Стюарт-Джарретт, Джордж Маккэй, Нима Талегани, Аарон Хеффернан, Джон Маккри, Антония Кларк О фильме: Джулс зарабатывает дрэгом, его Афродита Бэнкс пользуется успехом у публики, но после одного из выступлений подвергается гомофобному нападению. Через некоторое время после этого события Джулс сталкивается с Престоном, одним из своих нападавших, в гей-сауне. Джулс хочет разузнать о нем больше и отомстить ему побольнее. Страна: Великобритания Продолжительность: 01:34:43 Перевод: субтитры (Dark Alice & FOCS) Субтитры: русские Оригинальная аудиодорожка: английский Файл Качество: WEB-DL 1080p Видео: MPEG-4-AVC, 1920 x 1080, 16:9, 5743 kbps, 25,000 fps Звук: AAC-LC, 2 channels, 48,0 khz, 317 kbps
[+] Скриншоты
[+] MediaInfo Общее Уникальный идентификатор : 188352406239023198846830916379747344064 (0x8DB35A9AFAF7EBD2A833A000701CDEC0) Полное имя : Femme.2023.1080p.WEB-DL.AAC2.0.H.264-KUCHU.mkv Формат : Matroska Версия формата : Version 4 Размер файла : 4,01 Гбайт Продолжительность : 1 ч. 34 м. Общий поток : 6 063 Кбит/сек Дата кодирования : UTC 2024-05-25 18:40:06 Программа кодирования : mkvmerge v8.3.0 ('Over the Horizon') 64bit Библиотека кодирования : libebml v1.3.1 + libmatroska v1.4.2 Видео Идентификатор : 1 Формат : AVC Формат/Информация : Advanced Video Codec Профиль формата : High@L5 Настройки формата : CABAC / 6 Ref Frames Параметр CABAC формата : Да Параметр RefFrames формата : 6 кадров Идентификатор кодека : V_MPEG4/ISO/AVC Продолжительность : 1 ч. 34 м. Битрейт : 5 743 Кбит/сек Ширина : 1 920 пикселей Высота : 1 080 пикселей Соотношение сторон : 16:9 Режим частоты кадров : Постоянный Частота кадров : 25,000 кадров/сек Цветовое пространство : YUV Субдискретизация насыщенности : 4:2:0 Битовая глубина : 8 бит Тип развёртки : Прогрессивная Бит/(Пиксели*Кадры) : 0.111 Размер потока : 3,80 Гбайт (95%) Default : Да Forced : Нет Аудио Идентификатор : 2 Формат : AAC LC Формат/Информация : Advanced Audio Codec Low Complexity Идентификатор кодека : A_AAC-2 Продолжительность : 1 ч. 34 м. Битрейт : 317 Кбит/сек Каналы : 2 канала Channel layout : L R Частота : 48,0 КГц Частота кадров : 46,875 кадров/сек (1024 SPF) Метод сжатия : С потерями Размер потока : 215 Мбайт (5%) Язык : English Default : Да Forced : Нет Текст Идентификатор : 3 Формат : UTF-8 Идентификатор кодека : S_TEXT/UTF8 Идентификатор кодека/Информация : UTF-8 Plain Text Продолжительность : 1 ч. 28 м. Битрейт : 61 бит/сек Count of elements : 1017 Размер потока : 40,1 Кбайт (0%) Заголовок : Dark Alice & FOCS Язык : Russian Default : Да Forced : Нет

Всего файлов в раздаче: 1 
Femme.2023.1080p.WEB-DL.AAC2.0.H.264-KUCHU.mkv4.01 GB

Похожие раздачи по запросу - Женщина
2024-07-20 magnet Женщина в озере / Lady in the Lake [01x01-02 из 07] (2024) WEBRip 1080p от Kerob | L2 4.01 GB ↑ 0 ↓ 0
2024-07-20 magnet Женщина в озере / Lady in the Lake [01х01-02 из 07] (2024) WEBRip | ViruseProject 1.23 GB ↑ 0 ↓ 0
2024-07-20 magnet Женщина в озере / Lady in the Lake [01x01-02 из 07] (2024) WEBRip от Kerob | L2 968.50 MB ↑ 0 ↓ 0
2024-07-20 magnet Женщина в озере / Lady in the Lake [01х01-02 из 07] (2024) WEBRip 1080p | ViruseProject 3.75 GB ↑ 0 ↓ 2
2024-07-10 magnet Юлия Шилова - Серия «Женщина, которой смотрят вслед» [22 книги] (2012-2018) FB2 21.85 MB ↑ 0 ↓ 0
2024-06-24 magnet Женщина в песках / Suna no onna / Woman in dunes (1964) BDRip 720p от msltel | Sub | Режиссёрская версия 6.65 GB ↑ 0 ↓ 0
2024-06-23 magnet Женщина в песках / Suna no onna / Woman in dunes (1964) BDRip-AVC от msltel | Sub | Режиссёрская версия 3.90 GB ↑ 0 ↓ 0

Комментарии


Зарегистрируйтесь чтобы добавить комментарий
Торрент клиент
byTorrent - программа для загрузки торрент-файлов.

Скачать byTorrent.exe (1,5 МБ)

Скачать byTorrent.zip (0,6 МБ)

Поддержи torrent.by
российских рублей
(300 российских рублей это 4$)

Обратная связь rss

End game ©