↑↓torrent.by
Поиск
Логин:  Регистрация
Пароль:

Золото Рейна / Золотой инкассатор / Rheingold (2022) BDRip 1080p от MegaPeer | D, P

download Скачать торрент-файл   magnet Магнитная ссылка Размер: 12.84 GB Добавлен: 2024-07-05 05:00
Пиры будут получены из сети DHT
Последний сидер был замечен вчера в 16:57
Информация Название: Золото Рейна / Золотой инкассатор Оригинальное название: Rheingold Год выхода: 2022 Жанр: Драма, криминал, биография, музыка Режиссер: Фатих Акин В ролях: Эмилио Сакрайя, Мона Пирзад, Юлия Голдберг, Согол Фагани, Карим Гюнес, Дога Гюрер, Самир Жебрелли, Хуссейн Элираки, Джесси Альберт, Хосе Баррош Описание: Настоящей школой для маленького Гивара были улицы. Повзрослев, он становится вышибалой и дилером, но однажды теряет крупную партию товара. Тогда вместе с сообщниками он похищает из инкассаторского фургона золото на 1,7 млн. евро. Золото словно испаряется в воздухе, а парень попадает в тюрьму. И превращается в самого известного гангста-рэпера Германии — Xatar. Страна: Германия, Италия, Нидерланды Студия: Bombero International, Corazón International, Lemming Film, Palosanto Films, Rai Cinema, Warner Bros. Film Productions Germany Продолжительность: 02:18:14 Перевод: * Профессиональный (полное дублирование) | Pride Production | *** В дубляже (WEB-DL) отсутствуют несколько сцен по сравнению с Blu-ray, диалоги присутствуют только в одной сцене, сделана вставка с профессионального (многоголосого) Jaskier * Профессиональный (многоголосый, закадровый) | Jaskier | Файл Качество: BDRip 1080p Исходник: Rheingold 2022 1080p Blu-ray Remux AVC TrueHD 7.1-HDT Формат: MKV Кодек: MPEG-4 AVC Видео: 1920x1036 (1,85:1), 23.976 fps, MPEG-4 AVC ~ 11.4 Mbps avg, 0.239 bit/pixel Аудио: AC3, 48 kHz, 6 ch, ~448.00 kbps avg | русский | DUB | Аудио: E-AC3, 48 kHz, 6 ch, ~448.00 kbps avg | русский | DUB | Аудио: AC3, 48 kHz, 6 ch, ~384.00 kbps avg | русский | MVO | Аудио: AC3, 48 kHz, 6 ch, ~640.00 kbps avg | немецкий | Субтитры: Русские (Forced, Full), Английские (Full), Немецкие (Forced) Релиз:
[+] Инфо-файлОбщее Уникальный идентификатор : 181752625316686117640619979642325030601 (0x88BC484889B1592F9902F54E73E1D6C9) Полное имя : Rheingold.2022.D.MVO.1080p.BluRay.DD.5.1.x264-MegaPeer.mkv Формат : Matroska Версия формата : Version 4 Размер файла : 12,8 Гбайт Продолжительность : 2 ч. 18 мин. Общий битрейт : 13,3 Мбит/сек Частота кадров : 23,976 кадра/сек Название фильма : Золото Рейна / Золотой инкассатор / Rheingold (2022) от stillet@MegaPeer Дата кодирования : 2024-07-04 11:19:12 UTC Программа кодирования : mkvmerge v15.0.0 ('Duel with the Devil') 64-bit Библиотека кодирования : libebml v1.3.5 + libmatroska v1.4.5 Обложка : Yes Attachments : cover.jpg Видео Идентификатор : 1 Формат : AVC Формат/Информация : Advanced Video Codec Профиль формата : High@L4.1 Настройки формата : CABAC / 4 Ref Frames Параметр CABAC формата : Да Параметр RefFrames формата : 4 кадра Идентификатор кодека : V_MPEG4/ISO/AVC Продолжительность : 2 ч. 18 мин. Битрейт : 11,4 Мбит/сек Ширина : 1 920 пикселей Высота : 1 036 пикселей Соотношение сторон дисплея : 1,85:1 Режим частоты кадров : Постоянный Частота кадров : 23,976 (24000/1001) кадра/сек Цветовое пространство : YUV Цветовая субдискретизация : 4:2:0 Битовая глубина : 8 бит Тип развёртки : Прогрессивная Бит/(Пиксели*Кадры) : 0.239 Размер потока : 11,0 Гбайт (86%) Заголовок : stillet@MegaPeer Библиотека кодирования : x264 core 164 r3106+55M stillet t_mod_New Параметры библиотеки кодирования : cabac=1 / ref=4 / deblock=1:-3:-3 / analyse=0x3:0x113 / me=umh / subme=10 / psy=1 / fade_compensate=0.00 / psy_rd=1.00:0.00 / mixed_ref=1 / me_range=32 / chroma_me=1 / trellis=2 / 8x8dct=1 / cqm=0 / deadzone=21,11 / fast_pskip=0 / chroma_qp_offset=-2 / threads=12 / lookahead_threads=3 / sliced_threads=0 / nr=0 / decimate=0 / interlaced=0 / bluray_compat=0 / constrained_intra=0 / fgo=0 / bframes=11 / b_pyramid=2 / b_adapt=2 / b_bias=0 / direct=3 / weightb=1 / open_gop=0 / weightp=2 / keyint=240 / keyint_min=24 / scenecut=40 / intra_refresh=0 / rc_lookahead=40 / rc=2pass / mbtree=0 / bitrate=11400 / ratetol=1.0 / qcomp=0.60 / qpmin=0:0:0 / qpmax=69:69:69 / qpstep=4 / cplxblur=20.0 / qblur=0.5 / vbv_maxrate=50000 / vbv_bufsize=62500 / nal_hrd=none / filler=0 / ip_ratio=1.40 / pb_ratio=1.30 / aq=1:1.10 / aq-sensitivity=10.00 / aq-factor=1.00:1.00:1.00 / aq2=0 / aq3=0 Язык : Немецкий По умолчанию : Да Принудительно : Нет Аудио #1 Идентификатор : 2 Формат : AC-3 Формат/Информация : Audio Coding 3 Коммерческое название : Dolby Digital Идентификатор кодека : A_AC3 Продолжительность : 2 ч. 18 мин. Вид битрейта : Постоянный Битрейт : 448 Кбит/сек Канал(-ы) : 6 каналов Расположение каналов : L R C LFE Ls Rs Частота дискретизации : 48,0 КГц Частота кадров : 31,250 кадров/сек (1536 SPF) Метод сжатия : С потерями Размер потока : 443 Мбайт (3%) Заголовок : DUB | Pride Production Язык : Русский Вид сервиса : Complete Main По умолчанию : Да Принудительно : Да AC3_metadata cmixlev : -3.0 dB surmixlev : -3 dB Аудио #2 Идентификатор : 3 Формат : E-AC-3 Формат/Информация : Enhanced AC-3 Коммерческое название : Dolby Digital Plus Идентификатор кодека : A_EAC3 Продолжительность : 2 ч. 18 мин. Вид битрейта : Постоянный Битрейт : 448 Кбит/сек Канал(-ы) : 6 каналов Расположение каналов : L R C LFE Ls Rs Частота дискретизации : 48,0 КГц Частота кадров : 31,250 кадров/сек (1536 SPF) Метод сжатия : С потерями Размер потока : 443 Мбайт (3%) Заголовок : DUB | Pride Production Язык : Русский Вид сервиса : Complete Main По умолчанию : Нет Принудительно : Нет Аудио #3 Идентификатор : 4 Формат : AC-3 Формат/Информация : Audio Coding 3 Коммерческое название : Dolby Digital Идентификатор кодека : A_AC3 Продолжительность : 2 ч. 18 мин. Вид битрейта : Постоянный Битрейт : 384 Кбит/сек Канал(-ы) : 6 каналов Расположение каналов : L R C LFE Ls Rs Частота дискретизации : 48,0 КГц Частота кадров : 31,250 кадров/сек (1536 SPF) Метод сжатия : С потерями Размер потока : 380 Мбайт (3%) Заголовок : MVO | Jaskier Язык : Русский Вид сервиса : Complete Main По умолчанию : Нет Принудительно : Нет AC3_metadata cmixlev : -3.0 dB surmixlev : -3 dB Аудио #4 Идентификатор : 5 Формат : AC-3 Формат/Информация : Audio Coding 3 Коммерческое название : Dolby Digital Настройки формата : Dolby Surround EX Идентификатор кодека : A_AC3 Продолжительность : 2 ч. 18 мин. Вид битрейта : Постоянный Битрейт : 640 Кбит/сек Канал(-ы) : 6 каналов Расположение каналов : L R C LFE Ls Rs Частота дискретизации : 48,0 КГц Частота кадров : 31,250 кадров/сек (1536 SPF) Метод сжатия : С потерями Размер потока : 633 Мбайт (5%) Язык : Немецкий Вид сервиса : Complete Main По умолчанию : Нет Принудительно : Нет AC3_metadata cmixlev : -3.0 dB surmixlev : -3 dB Текст #1 Идентификатор : 6 Формат : UTF-8 Идентификатор кодека : S_TEXT/UTF8 Идентификатор кодека/Информация : UTF-8 Plain Text Продолжительность : 2 ч. 8 мин. Битрейт : 12 бит/сек Частота кадров : 0,023 кадр/сек Число элементов : 174 Размер потока : 11,4 КиБ (0%) Заголовок : Forced Язык : Русский По умолчанию : Да Принудительно : Да Текст #2 Идентификатор : 7 Формат : UTF-8 Идентификатор кодека : S_TEXT/UTF8 Идентификатор кодека/Информация : UTF-8 Plain Text Продолжительность : 2 ч. 10 мин. Битрейт : 93 бит/сек Частота кадров : 0,214 кадр/сек Число элементов : 1672 Размер потока : 89,0 КиБ (0%) Заголовок : Full Язык : Русский По умолчанию : Нет Принудительно : Нет Текст #3 Идентификатор : 8 Формат : UTF-8 Идентификатор кодека : S_TEXT/UTF8 Идентификатор кодека/Информация : UTF-8 Plain Text Продолжительность : 2 ч. 10 мин. Битрейт : 93 бит/сек Частота кадров : 0,214 кадр/сек Число элементов : 1672 Размер потока : 89,0 КиБ (0%) Заголовок : Full Язык : Русский По умолчанию : Нет Принудительно : Нет Текст #4 Идентификатор : 9 Формат : UTF-8 Идентификатор кодека : S_TEXT/UTF8 Идентификатор кодека/Информация : UTF-8 Plain Text Продолжительность : 2 ч. 0 мин. Битрейт : 13 бит/сек Частота кадров : 0,054 кадр/сек Число элементов : 390 Размер потока : 11,6 КиБ (0%) Заголовок : Forced Язык : Немецкий По умолчанию : Нет Принудительно : Нет Текст #5 Идентификатор : 10 Формат : UTF-8 Идентификатор кодека : S_TEXT/UTF8 Идентификатор кодека/Информация : UTF-8 Plain Text Продолжительность : 2 ч. 12 мин. Битрейт : 43 бит/сек Частота кадров : 0,159 кадр/сек Число элементов : 1271 Размер потока : 42,6 КиБ (0%) Заголовок : Full Язык : Английский По умолчанию : Нет Принудительно : Нет Меню 00:00:00.000 : en:Chapter 01 00:10:48.397 : en:Chapter 02 00:19:58.906 : en:Chapter 03 00:30:34.207 : en:Chapter 04 00:43:46.665 : en:Chapter 05 00:56:16.164 : en:Chapter 06 01:08:55.506 : en:Chapter 07 01:21:46.318 : en:Chapter 08 01:32:07.480 : en:Chapter 09 01:46:09.112 : en:Chapter 10 01:57:43.806 : en:Chapter 11 02:07:49.161 : en:Chapter 12
[+] Скриншоты

Всего файлов в раздаче: 1 
Rheingold.2022.D.MVO.1080p.BluRay.DD.5.1.x264-MegaPeer.mkv12.84 GB

Похожие раздачи по запросу - Золото
2024-07-18 magnet Виктория Алешко - Настоящее золото (2024) MP3 128.34 MB ↑ 0 ↓ 0
2024-07-13 magnet Золото Рейна / Золотой инкассатор / Rheingold (2022) BDRip 1080p от Generalfilm | D 9.31 GB ↑ 0 ↓ 0
2024-07-05 magnet Золото Рейна / Золотой инкассатор / Rheingold (2022) BDRip-AVC от DoMiNo & селезень | D, P 2.62 GB ↑ 0 ↓ 0
2024-07-05 magnet Золото Рейна / Золотой инкассатор / Rheingold (2022) BDRip 720p от DoMiNo & селезень | D, P 6.79 GB ↑ 0 ↓ 0
2024-07-04 magnet Золото Рейна / Золотой инкассатор / Rheingold (2022) BDRip | D 1.46 GB ↑ 0 ↓ 0
2024-07-04 magnet Золото Рейна / Золотой инкассатор / Rheingold (2022) BDRip | D 2.18 GB ↑ 0 ↓ 0
2024-07-01 magnet Золото [S01] (2024) WEBRip 1080p 7.59 GB ↑ 0 ↓ 0

Комментарии


Зарегистрируйтесь чтобы добавить комментарий
Торрент клиент
byTorrent - программа для загрузки торрент-файлов.

Скачать byTorrent.exe (1,5 МБ)

Скачать byTorrent.zip (0,6 МБ)

Поддержи torrent.by
российских рублей
(300 российских рублей это 4$)

Обратная связь rss

End game ©