↑↓torrent.by
Поиск
Логин:  Регистрация
Пароль:

Криминальный город. Возмездие / Beomjoe dosi 4 / The Roundup: Punishment (2024) WEB-DLRip от JNS82 | L | RGB

download Скачать торрент-файл   magnet Магнитная ссылка Размер: 1.46 GB Раздают: 0 Качают: 1 Добавлен: 2024-07-05 05:00
Пиры будут получены из сети DHT
Последний сидер был замечен 2024-07-10 22:32
Криминальный город. Возмездие / Beomjoe dosi 4 / The Roundup: Punishment Год выпуска: 2024 Выпущено: Южная Корея / ABO Entertainment, B.A. Entertainment, Big Punch Pictures, Hong Film Жанр: криминал, боевик, детектив Режиссер: Хо Мён-хэн / Heo Myeong-haeng В ролях: Ма Дон-сок, Ким Му-ёль, Ли Дон-хви, Пак Чи-хван, Ли Бом-су, Ким Мин-джэ, Ли Джу-бин, Хён Бон-щик, Ли Джи-хун О фильме: Детектив Ма Сок-то создал отдел по борьбе с киберпреступлениями и пытается поймать организаторов крупнейшего в стране нелегального онлайн-казино. Продолжительность: 01:49:12 Перевод: Любительский (многоголосый закадровый) | RGB | 18+ Субтитры: нет. Раздача от : Формат: AVI Качество: WEB-DLRip Видео: 720x304 (2.35:1), 24,000 fps, XviD MPEG-4 ~ 1716 kbps avg, 0.327 bit/pixel, build 73 Аудио: 48 kHz, AC3 Dolby Digital, 2/0 (L,R) ch, ~ 192 kbps | RUS |
[+] MediaInfoОбщее Полное имя : D:TorrentsThe.Roundup.Punishment.2024.WEB-DLRip_от_JNS82.avi Формат : AVI Формат/Информация : Audio Video Interleave Размер файла : 1,46 Гбайт Продолжительность : 1 ч. 49 м. Общий поток : 1 918 Кбит/сек Программа кодирования : VirtualDubMod 1.5.10.2 (build 2540/release) Библиотека кодирования : VirtualDubMod build 2540/release Видео Идентификатор : 0 Формат : MPEG-4 Visual Профиль формата : Advanced Simple@L5 Настройки формата : BVOP1 / Custom Matrix Параметр BVOP формата : 1 Параметр QPel формата : Нет Параметр GMC формата : Без точки перехода Параметр матрицы формата : Выборочная Идентификатор кодека : XVID Идентификатор кодека/Подсказка : XviD Продолжительность : 1 ч. 49 м. Битрейт : 1 716 Кбит/сек Ширина : 720 пикселей Высота : 304 пикселя Соотношение сторон : 2,35:1 Частота кадров : 24,000 кадра/сек Цветовое пространство : YUV Субдискретизация насыщенности : 4:2:0 Битовая глубина : 8 бит Тип развёртки : Прогрессивная Метод сжатия : С потерями Бит/(Пиксели*Кадры) : 0.327 Размер потока : 1,31 Гбайт (90%) Библиотека кодирования : XviD 73 Аудио Идентификатор : 1 Формат : AC-3 Формат/Информация : Audio Coding 3 Коммерческое название : Dolby Digital Идентификатор кодека : 2000 Продолжительность : 1 ч. 49 м. Вид битрейта : Постоянный Битрейт : 192 Кбит/сек Каналы : 2 канала Channel layout : L R Частота : 48,0 КГц Частота кадров : 31,250 кадров/сек (1536 SPF) Метод сжатия : С потерями Размер потока : 150 Мбайт (10%) Выравнивание : Разделение по промежуткам Продолжительность промежутка : 42 мс. (1,00 видеокадр) Время предзагрузки промежутка : 500 мс. Service kind : Complete Main

Всего файлов в раздаче: 1 
The.Roundup.Punishment.2024.WEB-DLRip_от_JNS82.avi1.46 GB

Похожие раздачи по запросу - Криминальный город
Вчера magnet Мой шпион: Вечный город / My Spy: The Eternal City (2024) WEB-DLRip 720p от DoMiNo & селезень | P2 | ViruseProject 2.20 GB ↑ 0 ↓ 3
Вчера magnet Мой шпион: Вечный город / My Spy: The Eternal City (2024) WEB-DLRip от New-Team | P2 | ViruseProject 1.46 GB ↑ 6 ↓ 3
Вчера magnet Мой шпион: Вечный город / My Spy: The Eternal City (2024) WEB-DL 1080p | ViruseProject 5.99 GB ↑ 3 ↓ 104
2024-07-19 magnet Затерянный город / The Lost City (2022) HDRip-AVC от ExKinoRay | D 746.48 MB ↑ 0 ↓ 0
2024-07-17 magnet Город страха / A Sacrifice (2024) WEB-DLRip-AVC | D | TS 1.51 GB ↑ 0 ↓ 0
2024-07-14 magnet Медина Ассара: потерянный город в Аль-Андалусии / Madinat Al-Zahra, la cité perdue d'Al Andalus (2022) HDTVRip 720p | Р1 1.58 GB ↑ 1 ↓ 0
2024-07-06 magnet Криминальный город. Возмездие / Beomjoe dosi 4 / The Roundup: Punishment (2024) WEB-DLRip-AVC | L | RGB 1.66 GB ↑ 10 ↓ 1

Комментарии


Зарегистрируйтесь чтобы добавить комментарий
Торрент клиент
byTorrent - программа для загрузки торрент-файлов.

Скачать byTorrent.exe (1,5 МБ)

Скачать byTorrent.zip (0,6 МБ)

Поддержи torrent.by
российских рублей
(300 российских рублей это 4$)

Обратная связь rss

End game ©