↑↓torrent.by
Поиск
Логин:  Регистрация
Пароль:

Месть / Рождественская песнь / Keuriseumaseu kaereol / Christmas Carol (2022) WEB-DLRip-AVC от DoMiNo & селезень | D

download Скачать торрент-файл   magnet Магнитная ссылка Размер: 1.46 GB Добавлен: 2024-07-05 11:00
Пиры будут получены из сети DHT
Последний сидер был замечен 2024-07-07 12:17
Информация о фильме Название: Месть / Рождественская песнь Оригинальное название: Keuriseumaseu kaereol / Christmas Carol Год выхода: 2022 Жанр: Триллер, криминал Режиссер: Ким Сон-су В ролях: Чинён, Ким Ён-мин, Хо Дон-вон, Ким Дон-хви О фильме: В канун Рождества брата-близнеца Чу Джу-у находят мёртвым в резервуаре для воды. Смерть представляют как несчастный случай, но парень уверен, что это убийство. Он выходит на след бандитов и планирует расправу, но они уже отбывают заключение в колонии для несовершеннолетних. Чу остаётся только самому попасть в тюрьму, где он сможет добраться до убийц и отомстить. Страна: Корея Южная Студия: Finecut Продолжительность: 02:03:27 Перевод: Дублированный Файл Формат: Matroska Качество: WEB-DLRip-AVC Видео: 1024x428 at 25.000 fps, x264@L4.1, ~1310 kbps Аудио: AC3, 6 ch, ~384 kbps - | Русский | Субтитры: Отсутствуют ***Рип от: -=DoMiNo=-
[+] M/Ix264 : frame I:1424 Avg QP:12.28 size: 44841 x264 : frame P:31156 Avg QP:13.87 size: 16131 x264 : frame B:152595 Avg QP:15.96 size: 4231 General Unique ID : 231322863514500033168281419127978308479 (0xAE0729B82A748DBCEF87E6B64465B37F) Complete name : I:Christmas.Carol.2022.WEB-DLRip.x264.seleZen.mkv Format : Matroska Format version : Version 4 File size : 1.46 GiB Duration : 2 h 3 min Overall bit rate : 1 695 kb/s Movie name : Christmas.Carol.2022.WEB-DLRip.x264.seleZen Encoded date : UTC 2023-03-02 08:16:04 Writing application : mkvmerge v74.0.0 ('You Oughta Know') 64-bit Writing library : libebml v1.4.4 + libmatroska v1.7.1 Cover : Yes Attachments : cover.jpg / small_cover.jpg Video ID : 1 Format : AVC Format/Info : Advanced Video Codec Format profile : High@L4.1 Format settings : CABAC / 11 Ref Frames Format settings, CABAC : Yes Format settings, Reference : 11 frames Codec ID : V_MPEG4/ISO/AVC Duration : 2 h 3 min Bit rate : 1 310 kb/s Width : 1 024 pixels Height : 428 pixels Display aspect ratio : 2.40:1 Frame rate mode : Constant Frame rate : 25.000 FPS Color space : YUV Chroma subsampling : 4:2:0 Bit depth : 8 bits Scan type : Progressive Bits/(Pixel*Frame) : 0.120 Stream size : 1.13 GiB (77%) Title : -=DoMiNo=- Writing library : x264 core 164 r3106+55M 24adf88 t_mod_New | by -=DoMiNo=- | X86_64] Encoding settings : cabac=1 / ref=11 / deblock=1:-2:-2 / analyse=0x3:0x133 / me=umh / subme=10 / psy=1 / fade_compensate=0.00 / psy_rd=1.03:0.05 / mixed_ref=1 / me_range=32 / chroma_me=1 / trellis=2 / 8x8dct=1 / cqm=0 / deadzone=21,11 / fast_pskip=0 / chroma_qp_offset=-3 / threads=17 / lookahead_threads=2 / sliced_threads=0 / nr=0 / decimate=1 / interlaced=0 / bluray_compat=0 / constrained_intra=0 / fgo=0 / bframes=9 / b_pyramid=2 / b_adapt=2 / b_bias=0 / direct=3 / weightb=1 / open_gop=0 / weightp=2 / keyint=240 / keyint_min=24 / scenecut=40 / intra_refresh=0 / rc_lookahead=60 / rc=2pass / mbtree=0 / bitrate=1310 / ratetol=1.0 / qcomp=0.60 / qpmin=0:0:0 / qpmax=69:69:69 / qpstep=4 / cplxblur=20.0 / qblur=0.5 / vbv_maxrate=50000 / vbv_bufsize=62500 / nal_hrd=none / filler=0 / ip_ratio=1.20 / pb_ratio=1.30 / aq=3:0.90 / aq-sensitivity=10.00 / aq-factor=1.00:1.00:1.00 / aq2=0 / aq3=0 Language : English Default : Yes Forced : No Audio ID : 2 Format : AC-3 Format/Info : Audio Coding 3 Commercial name : Dolby Digital Codec ID : A_AC3 Duration : 2 h 3 min Bit rate mode : Constant Bit rate : 384 kb/s Channel(s) : 6 channels Channel layout : L R C LFE Ls Rs Sampling rate : 48.0 kHz Frame rate : 31.250 FPS (1536 SPF) Compression mode : Lossy Stream size : 339 MiB (23%) Title : Dub Language : Russian Service kind : Complete Main Default : Yes Forced : Yes Menu 00:00:00.000 : en:Глава 01 00:11:40.000 : en:Глава 02 00:23:20.000 : en:Глава 03 00:35:00.000 : en:Глава 04 00:46:40.000 : en:Глава 05 00:58:20.000 : en:Глава 06 01:10:00.000 : en:Глава 07 01:21:40.000 : en:Глава 08 01:33:20.000 : en:Глава 09 01:45:00.000 : en:Глава 10 01:56:40.000 : en:Глава 11
Релиз: Присоединяйся к: Кликай на баннеры.

Всего файлов в раздаче: 1 
Christmas.Carol.2022.WEB-DLRip.x264.seleZen.mkv1.46 GB

Похожие раздачи по запросу - Месть
2024-07-18 magnet Кровная месть / The Hard Hit (2023) WEB-DLRip-AVC | L | RGB 1.46 GB ↑ 24 ↓ 3
2024-07-18 magnet Кровная месть / The Hard Hit (2023) WEB-DL 1080p | L | RGB 3.99 GB ↑ 19 ↓ 13
2024-07-16 magnet Фридрих Незнанский - Марш Турецкого, Месть в конверте (2024) МР3 522.31 MB ↑ 0 ↓ 0
2024-07-05 magnet Месть / Рождественская песнь / Keuriseumaseu kaereol / Christmas Carol (2022) WEB-DL 1080p | D, P 6.28 GB ↑ 0 ↓ 0
2024-06-29 magnet Веревка: Месть / La Soga 3 Vengeance (2023) WEB-DL 1080p от ELEKTRI4KA | D | Локализованная версия 3.10 GB ↑ 1 ↓ 0
2024-06-29 magnet Веревка: Месть / La Soga 3 Vengeance (2023) WEB-DLRip от ELEKTRI4KA | D | Локализованная версия 1.37 GB ↑ 0 ↓ 0
2024-06-09 magnet Месть Золушки / Cinderella's Revenge (2024) WEB-DL 1080p | ViruseProject 4.50 GB ↑ 0 ↓ 0

Комментарии


Зарегистрируйтесь чтобы добавить комментарий
Торрент клиент
byTorrent - программа для загрузки торрент-файлов.

Скачать byTorrent.exe (1,5 МБ)

Скачать byTorrent.zip (0,6 МБ)

Поддержи torrent.by
российских рублей
(300 российских рублей это 4$)

Обратная связь rss

End game ©